[ Сегодня на трекере фрилич! Идет свободное скачивание без начисления Download ]

Детсадовский полицейский / Kindergarten Cop (Айвен Райтман / Ivan Reitman) [1990 г., Боевик, триллер, комедия, криминал, BDRip] MVO (Universal) + MVO (Премьер Видео) + MVO (НТВ) + Original (Eng)

 

Создавать темы 30-Июл-2014 21:28

-Детсадовский полицейский / Kindergarten Cop-«Под прикрытием и в осаде»- Производство: США, Imagine Entertainment, Universal Pictures
Год выпуска: 1990 г.
Жанр: Боевик, триллер, комедия, криминал
Продолжительность: 01:51:14
Мировая премьера: 21 декабря 1990
Дата выхода DVD: 21 октября 2008, «Мьюзик-Трейд»
Перевод: Профессиональный (многоголосый, закадровый) [Universal]
Перевод 2: Профессиональный (многоголосый, закадровый) [Премьер Видео]
Перевод 3: Профессиональный (многоголосый, закадровый) [НТВ]
Оригинальный аудиопоток: английский-Режиссер: Айвен Райтман / Ivan Reitman
В ролях: Арнольд Шварценеггер, Пенелопа Энн Миллер, Памела Рид, Линда Хант, Ричард Тайсон, Кэррол Бейкер, Кэти Мориарти, Джозеф Казинс, Кристиан Казинс, Парк Овералл-Описание: Детектив Джон Кимбл, ветеран «грязных улиц» Лос-Анджелеса, готов справиться с кем угодно. Но для того чтобы заманить в ловушку хитрого преступника, ему приходится устроиться воспитателем в детский сад.
И вот когда он завоевывает уважение малышей и любовь прекрасной учительницы, ему предстоит схватка с преступником.- -Качество видео: BDRip
Контейнер: AVI
Видео кодек: XviD
Аудио кодек: AC3
Видео: 704x384 (1.83:1), 23.976 fps, XviD build 65 ~2038 kbps avg, 0.31 bit/pixel
Аудио #1: 48 kHz, AC3 Dolby Digital, 2/0 (L,R) ch, ~192 kbps - RUS
Аудио #2: 48 kHz, AC3 Dolby Digital, 2/0 (L,R) ch, ~192 kbps - RUS
Аудио #3: 48 kHz, AC3 Dolby Digital, 2/0 (L,R) ch, ~192 kbps - RUS
Аудио #4: 48 kHz, AC3 Dolby Digital, 2/0 (L,R) ch, ~192 kbps - ENG

Media Info

General
Complete name : D:\Detsadovskij.policejskij.1990.BDRip.avi
Format : AVI
Format/Info : Audio Video Interleave
Format profile : OpenDML
File size : 2.19 GiB
Duration : 1h 51mn
Overall bit rate : 2 813 Kbps
Writing application : VirtualDubMod 1.5.10.2 (build 2540/release)
Comment : 28.07.2014
Video
ID : 0
Format : MPEG-4 Visual
Format profile : Advanced [email protected]
Format settings, BVOP : 1
Format settings, QPel : No
Format settings, GMC : No warppoints
Format settings, Matrix : Custom
Codec ID : XVID
Codec ID/Hint : XviD
Duration : 1h 51mn
Bit rate : 2 015 Kbps
Width : 704 pixels
Height : 384 pixels
Display aspect ratio : 1.85:1
Frame rate : 23.976 fps
Color space : YUV
Chroma subsampling : 4:2:0
Bit depth : 8 bits
Scan type : Progressive
Compression mode : Lossy
Bits/(Pixel*Frame) : 0.311
Stream size : 1.57 GiB (72%)
Writing library : XviD 65
Audio #1
ID : 1
Format : AC-3
Format/Info : Audio Coding 3
Mode extension : CM (complete main)
Format settings, Endianness : Big
Codec ID : 2000
Duration : 1h 51mn
Bit rate mode : Constant
Bit rate : 192 Kbps
Channel(s) : 2 channels
Channel positions : Front: L R
Sampling rate : 48.0 KHz
Bit depth : 16 bits
Compression mode : Lossy
Stream size : 153 MiB (7%)
Alignment : Split accross interleaves
Interleave, duration : 42 ms (1.00 video frame)
Interleave, preload duration : 500 ms
Audio #2
ID : 2
Format : AC-3
Format/Info : Audio Coding 3
Mode extension : CM (complete main)
Format settings, Endianness : Big
Codec ID : 2000
Duration : 1h 51mn
Bit rate mode : Constant
Bit rate : 192 Kbps
Channel(s) : 2 channels
Channel positions : Front: L R
Sampling rate : 48.0 KHz
Bit depth : 16 bits
Compression mode : Lossy
Stream size : 153 MiB (7%)
Alignment : Split accross interleaves
Interleave, duration : 42 ms (1.00 video frame)
Interleave, preload duration : 500 ms
Audio #3
ID : 3
Format : AC-3
Format/Info : Audio Coding 3
Mode extension : CM (complete main)
Format settings, Endianness : Big
Codec ID : 2000
Duration : 1h 51mn
Bit rate mode : Constant
Bit rate : 192 Kbps
Channel(s) : 2 channels
Channel positions : Front: L R
Sampling rate : 48.0 KHz
Bit depth : 16 bits
Compression mode : Lossy
Stream size : 153 MiB (7%)
Alignment : Split accross interleaves
Interleave, duration : 42 ms (1.00 video frame)
Interleave, preload duration : 500 ms
Audio #4
ID : 4
Format : AC-3
Format/Info : Audio Coding 3
Mode extension : CM (complete main)
Format settings, Endianness : Big
Codec ID : 2000
Duration : 1h 51mn
Bit rate mode : Constant
Bit rate : 192 Kbps
Channel(s) : 2 channels
Channel positions : Front: L R
Sampling rate : 48.0 KHz
Bit depth : 16 bits
Compression mode : Lossy
Stream size : 153 MiB (7%)
Alignment : Split accross interleaves
Interleave, duration : 42 ms (1.00 video frame)
Interleave, preload duration : 500 ms

Скриншоты

Яндекс.Метрика
Рейтинг@Mail.ru