Таинственный остров (Эдуард Пенцлин) [1941 г., приключения, семейный, экранизация, TVRip]

 

Создавать темы 30-Июл-2014 21:27

-Таинственный остров-- Производство: Одесская киностудия
Режиссер: Эдуард Пенцлин
Жанр: приключения, семейный, экранизация
Год выпуска: 1941 г.
Продолжительность: 01:28:17
Российская премьера: 3 мая 1941
В ролях: Алексей Краснопольский, Павел Киянский, Андрей Андриенко-Земсков, Иван Козлов, Роберт Росс, Юра Грамматикати, Андрей Сова, Николай Комиссаров-Описание: По роману Жюля Верна.
В 1865 году из цитадели рабовладельческого Юга Америки города Ричмонда на воздушном шаре спасается группа смельчаков северян, о том, как они оказываются на необитаемом острове, где у них появляется таинственный покровитель - капитан Немо...-Качество видео: TVRip
Контейнер: AVI
Видео кодек: XviD
Аудио кодек: AC3
Видео: 704x528 (1.33:1), 25 fps, XviD build 46 ~1977 kbps avg, 0.21 bit/pixel
Аудио: 48 kHz, AC3 Dolby Digital, 2/0 (L,R) ch, ~128 kbps
Cубтитры: отсутствуют

Media Info

Format : AVI
Format/Info : Audio Video Interleave
File size : 1.23 GiB
Duration : 1h 28mn
Overall bit rate : 1 989 Kbps
Video
ID : 0
Format : MPEG-4 Visual
Format profile : [email protected]
Format settings, BVOP : No
Format settings, QPel : No
Format settings, GMC : No warppoints
Format settings, Matrix : Default (H.263)
Codec ID : XVID
Codec ID/Hint : XviD
Duration : 1h 28mn
Source duration : 1h 28mn
Bit rate : 1 850 Kbps
Width : 704 pixels
Height : 528 pixels
Display aspect ratio : 4:3
Frame rate : 25.000 fps
Color space : YUV
Chroma subsampling : 4:2:0
Bit depth : 8 bits
Scan type : Progressive
Compression mode : Lossy
Bits/(Pixel*Frame) : 0.199
Stream size : 1.14 GiB (93%)
Writing library : XviD 1.1.2 (UTC 2006-11-01)
Audio
ID : 1
Format : AC-3
Format/Info : Audio Coding 3
Mode extension : CM (complete main)
Format settings, Endianness : Big
Codec ID : 2000
Duration : 1h 28mn
Bit rate mode : Constant
Bit rate : 128 Kbps
Channel count : 2 channels
Channel positions : Front: L R
Sampling rate : 48.0 KHz
Bit depth : 16 bits
Compression mode : Lossy
Stream size : 80.8 MiB (6%)
Alignment : Aligned on interleaves
Interleave, duration : 32 ms (0.80 video frame)

Скриншот c названием фильма

Скриншоты

Яндекс.Метрика
Рейтинг@Mail.ru