Один в темноте 2 / Alone in the Dark II (Михаэль Рёш / Michael Roesch, Питер Ширер / Peter Scheerer) [2008 г., Ужасы, фэнтези, триллер, BDRip] MVO (R5)

 

Создавать темы 30-Июл-2014 21:24

-Один в темноте 2 / Alone in the Dark II-«Жрица тьмы ищет твою душу»- Производство: Германия, HJB Filmproduktion, Bussard, Brooklyn Independent Studios
Год выпуска: 2008 г.
Жанр: Ужасы, фэнтези, триллер
Продолжительность: 01:31:36
Мировая премьера: 25 сентября 2008
Российская премьера: 1 сентября 2008
Дата выхода DVD: 14 мая 2009, «Lizard Cinema Trade»
Перевод: Профессиональный (многоголосый, закадровый) [R5]-Режиссер: Михаэль Рёш / Michael Roesch, Питер Ширер / Peter Scheerer
В ролях: Рик Юн, Рэйчел Спектер, Лэнс Хенриксен, Билл Моусли, Ральф Мёллер, Дэнни Трехо, Зак Уорд, Наташа Мальте, Джейсон Коннери, Майкл Паре-Описание: Эдвард Карнби, исследователь паранормальных явлений, бросает вызов темным силам. Жрица тьмы вырвалась из своей адской темницы! Появившись вновь среди людей, она начинает искать невинные души, чтобы принести их в жертву своему темному Повелителю. Собрав команду, Карнби отправляется на поиски священного артефакта, способного уничтожить демона…- -Качество видео: BDRip
Контейнер: AVI
Видео кодек: XviD
Аудио кодек: AC3
Видео: 720x304 (2.37:1), 23.976 fps, XviD build 65 ~1876 kbps avg, 0.36 bit/pixel
Аудио: 48 kHz, AC3 Dolby Digital, 3/2 (L,C,R,l,r) + LFE ch, ~384 kbps - RUS
Cубтитры: отсутствуют

Media Info

General
Complete name : D:\Odin.v.temnote.2.2008.BDRip.avi
Format : AVI
Format/Info : Audio Video Interleave
File size : 1.45 GiB
Duration : 1h 31mn
Overall bit rate : 2 270 Kbps
Writing application : VirtualDubMod 1.5.10.2 (build 2540/release)
Comment : 26.07.2014
Video
ID : 0
Format : MPEG-4 Visual
Format profile : Advanced [email protected]
Format settings, BVOP : 1
Format settings, QPel : No
Format settings, GMC : No warppoints
Format settings, Matrix : Custom
Codec ID : XVID
Codec ID/Hint : XviD
Duration : 1h 31mn
Bit rate : 1 876 Kbps
Width : 720 pixels
Height : 304 pixels
Display aspect ratio : 2.35:1
Frame rate : 23.976 fps
Color space : YUV
Chroma subsampling : 4:2:0
Bit depth : 8 bits
Scan type : Progressive
Compression mode : Lossy
Bits/(Pixel*Frame) : 0.358
Stream size : 1.20 GiB (83%)
Writing library : XviD 65
Audio
ID : 1
Format : AC-3
Format/Info : Audio Coding 3
Mode extension : CM (complete main)
Format settings, Endianness : Big
Codec ID : 2000
Duration : 1h 31mn
Bit rate mode : Constant
Bit rate : 384 Kbps
Channel(s) : 6 channels
Channel positions : Front: L C R, Side: L R, LFE
Sampling rate : 48.0 KHz
Bit depth : 16 bits
Compression mode : Lossy
Delay relative to video : 8ms
Stream size : 252 MiB (17%)
Alignment : Split accross interleaves
Interleave, duration : 42 ms (1.00 video frame)
Interleave, preload duration : 500 ms

Скриншоты

Яндекс.Метрика
Рейтинг@Mail.ru