[ Сегодня на трекере фрилич! Идет свободное скачивание без начисления Download ]

Всадник по имени Смерть (Карен Шахназаров) [2004, драма, BDRip]

 

Создавать темы 30-Июл-2014 17:29

Всадник по имени Смерть-- Год выпуска: 2004
Жанр: драма
Продолжительность: 01:46:26
Русские субтитры: нет
Режиссер: Карен Шахназаров-В ролях: Андрей Панин, Ксения Раппопорт, Артем Семакин, Ростислав Бершауэр, Анастасия Макеева, Алексей Казаков, Дмитрий Дюжев, Валерий Сторожик, Василий Зотов, Дмитрий Гусев.
-Описание
Россия начала XX века. Совершен ряд кровавых террористических актов, направленных против высоких должностных лиц государства. Главная цель террористов — убийство Великого князя Сергея Александровича. Покушение готовят члены так называемой «Боевой организации» — ее руководитель Жорж.
Процесс подготовки теракта раскрывает психику, чувства и стремления террористов, каждый из которых идет на террор по различным причинам: во имя любви к ближнему, в порыве мести, во имя принципа, веры в светлое будущее. Одна за другой проваливаются попытки теракта — гибнут практически все его организаторы.
Оставшийся в живых Жорж внезапно осознает, что дело убийства Великого князя становится для него смыслом его существования, и что ради осуществления задуманного он пойдет на все. Он совершает дерзкое убийство, однако, его ждет разочарование.
-КИНОПОИСК
IMDB
Качество: BDRip
Формат: AVI
Видео кодек: XviD
Видео: 720x432 (1.67:1), 23.976 fps, XviD build 64 ~1501 kbps avg, 0.20 bit/pixel
Аудио: 48 kHz, AC3 Dolby Digital, 3/2 (L,C,R,l,r) + LFE ch, ~448.00 kbps avg
-

МедиаИнфо

Общее
Формат : AVI
Формат/Информация : Audio Video Interleave
Размер файла : 1,46 Гбайт
Продолжительность : 1 ч. 46 м.
Общий поток : 1959 Кбит/сек
Режиссёр : Menen
Программа кодирования : VirtualDubMod 1.5.10.2 (build 2540/release)
Видео
Идентификатор : 0
Формат : MPEG-4 Visual
Профиль формата : Advanced [email protected]
Параметр BVOP формата : 1
Параметр QPel формата : Нет
Параметр GMC формата : Без точки перехода
Параметр матрицы формата : Выборочная
Идентификатор кодека : XVID
Идентификатор кодека/Подсказка : XviD
Продолжительность : 1 ч. 46 м.
Битрейт : 1502 Кбит/сек
Ширина : 720 пикселей
Высота : 432 пикселя
Соотношение сторон : 1,667
Частота кадров : 23,976 кадра/сек
Цветовое пространство : YUV
Субдискретизация насыщенности : 4:2:0
Битовая глубина : 8 бит
Тип развёртки : Прогрессивная
Метод сжатия : С потерями
Бит/(Пиксели*Кадры) : 0.201
Размер потока : 1,12 Гбайт (77%)
Библиотека кодирования : XviD 64
Аудио
Идентификатор : 1
Формат : AC-3
Формат/Информация : Audio Coding 3
Расширение режима : CM (complete main)
Параметр Endianness формата : Big
Идентификатор кодека : 2000
Продолжительность : 1 ч. 46 м.
Вид битрейта : Постоянный
Битрейт : 448 Кбит/сек
Каналы : 6 каналов
Расположение каналов : Front: L C R, Side: L R, LFE
Частота : 48,0 КГц
Битовая глубина : 16 бит
Метод сжатия : С потерями
Размер потока : 341 Мбайт (23%)
Выравнивание : Разделение по промежуткам
Продолжительность промежутка : 42 мс. (1,00 видеокадр)
Время предзагрузки промежутка : 500 мс.
Скриншоты-
Яндекс.Метрика
Рейтинг@Mail.ru