Нюша - Только не беги (2014) HDTV [1080p]

 

Создавать темы 30-Июл-2014 06:26

-Нюша - Только не беги (2014) HDTV [1080p]- Исполнитель: Нюша
Год выпуска: 2014
Жанр: Pop
Продолжительность: 00:03:59
Описание: клип молодой и талантливой певицы Нюши на песню "Только". Эта песня вошла в ее новый студийный альбом "Объединение", который вышел в апреле 2014 года. Автором музыки и слов этой песни является сама Нюша, а режиссером видеоклипа выступила Нателла Крапивина.
Качество видео: HDTV [1080p]
Видеокодек: MPEG-4 AVC/H.264
Битрейт видео: ~8000 Кбит/с
Размер кадра: 1920x1080 (16:9), 25,000 кадров/с
Аудиокодек: AAC, 2 ch, stereo
Битрейт аудио: 317 Кбит/с

MediaInfo:

Общее
Полное имя : Нюша - Только не беги .mp4
Формат : MPEG-4
Профиль формата : Base Media / Version 2
Идентификатор кодека : mp42
Размер файла : 237 Мбайт
Продолжительность : 3 м. 59 с.
Режим общего битрейта : Переменный
Общий поток : 8274 Кбит/сек
Дата кодирования : UTC 2014-05-27 11:21:17
Дата пометки : UTC 2014-05-27 11:21:21
©TIM : 00:00:00:00
©TSC : 25
©TSZ : 1
Видео
Идентификатор : 1
Формат : AVC
Формат/Информация : Advanced Video Codec
Профиль формата : [url=mailto:[email protected]][email protected][/url]
Параметр CABAC формата : Да
Параметр ReFrames формата : 3 кадра
Идентификатор кодека : avc1
Идентификатор кодека/Информация : Advanced Video Coding
Продолжительность : 3 м. 59 с.
Вид битрейта : Переменный
Битрейт : 8000 Кбит/сек
Ширина : 1920 пикселей
Высота : 1080 пикселей
Соотношение сторон : 16:9
Режим частоты кадров : Постоянный
Частота кадров : 25,000 кадров/сек
Стандарт вещания : PAL
Цветовое пространство : YUV
Субдискретизация насыщенности : 4:2:0
Битовая глубина : 8 бит
Тип развёртки : Прогрессивная
Бит/(Пиксели*Кадры) : 0.154
Размер потока : 227 Мбайт (96%)
Язык : English
Дата кодирования : UTC 2014-05-27 11:21:17
Дата пометки : UTC 2014-05-27 11:21:17
Основные цвета : BT.709
Характеристики трансфера : BT.709
Коэффициенты матрицы : BT.709
Аудио
Идентификатор : 2
Формат : AAC
Формат/Информация : Advanced Audio Codec
Профиль формата : LC
Идентификатор кодека : 40
Продолжительность : 3 м. 59 с.
Продолжительность оригинала : 3 м. 59 с.
Вид битрейта : Переменный
Битрейт : 317 Кбит/сек
Максимальный битрейт : 403 Кбит/сек
Каналы : 2 канала
Расположение каналов : Front: L R
Частота : 48,0 КГц
Метод сжатия : С потерями
Размер потока : 9,07 Мбайт (4%)
Размер потока оригинала : 9,08 Мбайт (4%)
Язык : English
Дата кодирования : UTC 2014-05-27 11:21:17
Дата пометки : UTC 2014-05-27 11:21:17
Скриншоты:
Яндекс.Метрика
Рейтинг@Mail.ru