The Black Keys - Attack & Release (2008) [FLAC 2.0 24/192|image (Vinyl-Rip)]<Alternative/Indie Rock>

 

Создавать темы 30-Июл-2014 06:12

-The Black Keys - Attack & Release (2008)- Год: 2008
Лейбл: Nonesuch (292476-1)
Страна: USA
Жанр: Alternative/Indie Rock
Продолжительность: 00:39:14
Кодек: FLAC 2.0 24/192
Тип рипа: image+.cue
Формат записи: 32/192
Формат раздачи: 24/192
Треклист:
01. All You Ever Wanted (2:56)
02. I Got Mine (3:59)
03. Strange Times (3:10)
04. Psychotic Girl (4:11)
05. Lies (3:59)
06. Remember When (Side A) (3:22)
07. Remember When (Side B) (2:11)
08. Same Old Thing (3:09)
09. So He Won't Break (4:14)
10. Oceans and Streams (3:27)
11. Things ain't Like They Used to Be (4:36)

Дополнительная информация&#58;

Состояние диска приличное - nm+.
Тракт: AT-OC9/III -> JVC QL-A7 -> Lehmann Audio Black Cube SE -> Lynx L22 (интерконнекты JVC и Lynx).
Снято Sound Forge Pro 11, из постобработки - убрал несколько мелких щелчков в паузах, нормализовал до -0.1 дБ.
Кьюшка и постер прописаны во флак. В кьюшке, которая во флаке, есть одна кривость - там вместо амперсантов знаки вопроса. Мой фолт - доверился ЕАСу, которым снял кьюшку из лени с компашки, вместо того, чтобы самому набить, а проверить забыл. Заметил уже после релиза. Эти же вопросики есть и в отчете МедиаИнфо и в отчете ДД.
Отдельная кьюшка в релизе без этих очепяток.
Сосканено все, что было, за исключением прилагающейся сидишки - ни сканить, ни рипать не стал.

Отчёт MediaInfo&#58;

General
Complete name                            : D:\Music - vinyl collection\b\Black Keys, The\2008-Attack & Release\The Black Keys - Attack & Release.flac
Format                                   : FLAC
Format/Info                              : Free Lossless Audio Codec
File size                                : 1.46 GiB
Duration                                 : 39mn 14s
Overall bit rate mode                    : Variable
Overall bit rate                         : 5 331 Kbps
Album                                    : Attack & Release
Performer                                : The Black Keys
Genre                                    : Alternative/Indie Rock
Recorded date                            : 2008
Cover                                    : Yes
Cover type                               : Cover (front)
Cover MIME                               : image/jpeg
Comment                                  : AT-OC9/III -> JVC QL-A7 -> Lehmann Audio Black Cube SE -> Lynx L22 (интерконнекты JVC и Lynx).
CUESHEET                                 : REM GENRE Alternative/Indie Rock / REM DATE 2008 / PERFORMER "The Black Keys" / TITLE "Attack & Release" / FILE "The Black Keys - Attack & Release.flac" WAVE /   TRACK 01 AUDIO /     TITLE "All You Ever Wanted" /     PERFORMER "The Black Keys" /     INDEX 01 00:00:00 /   TRACK 02 AUDIO /     TITLE "I Got Mine" /     PERFORMER "The Black Keys" /     INDEX 01 02:56:19 /   TRACK 03 AUDIO /     TITLE "Strange Times" /     PERFORMER "The Black Keys" /     INDEX 01 06:55:30 /   TRACK 04 AUDIO /     TITLE "Psychotic Girl" /     PERFORMER "The Black Keys" /     INDEX 01 10:05:54 /   TRACK 05 AUDIO /     TITLE "Lies" /     PERFORMER "The Black Keys" /     INDEX 01 14:16:32 /   TRACK 06 AUDIO /     TITLE "Remember When (Side A)" /     PERFORMER "The Black Keys" /     INDEX 01 18:15:33 /   TRACK 07 AUDIO /     TITLE "Remember When (Side B)" /     PERFORMER "The Black Keys" /     INDEX 01 21:36:72 /   TRACK 08 AUDIO /     TITLE "Same Old Thing" /     PERFORMER "The Black Keys" /     INDEX 01 23:47:72 /   TRACK 09 AUDIO /     TITLE "So He Won?t Break" /     PERFORMER "The Black Keys" /     INDEX 01 26:56:93 /   TRACK 10 AUDIO /     TITLE "Oceans and Streams" /     PERFORMER "The Black Keys" /     INDEX 01 31:11:18 /   TRACK 11 AUDIO /     TITLE "Things ain?t Like They Used to Be" /     PERFORMER "The Black Keys" /     INDEX 01 34:37:65
Audio
Format                                   : FLAC
Format/Info                              : Free Lossless Audio Codec
Duration                                 : 39mn 14s
Bit rate mode                            : Variable
Bit rate                                 : 5 331 Kbps
Channel(s)                               : 2 channels
Sampling rate                            : 192 KHz
Bit depth                                : 24 bits
Stream size                              : 1.46 GiB (100%)
Writing library                          : libFLAC 1.3.0 (UTC 2013-05-26)

Отчёт Dynamic Range Meter&#58;

foobar2000 1.3 / Dynamic Range Meter 1.1.1
log date: 2014-07-29 21:49:05
--------------------------------------------------------------------------------
Analyzed: The Black Keys / Attack & Release
--------------------------------------------------------------------------------
DR         Peak         RMS     Duration Track
--------------------------------------------------------------------------------
DR10      -0.10 dB   -15.85 dB      2:56 01-All You Ever Wanted
DR10      -0.63 dB   -12.06 dB      3:59 02-I Got Mine
DR10      -0.71 dB   -12.63 dB      3:10 03-Strange Times
DR10      -1.36 dB   -14.08 dB      4:11 04-Psychotic Girl
DR11      -0.74 dB   -13.61 dB      3:59 05-Lies
DR11      -2.25 dB   -16.03 dB      3:22 06-Remember When (Side A)
DR10      -0.50 dB   -12.21 dB      2:11 07-Remember When (Side B)
DR10      -1.43 dB   -13.47 dB      3:09 08-Same Old Thing
DR10      -0.48 dB   -12.89 dB      4:14 09-So He Won?t Break
DR10      -1.35 dB   -12.63 dB      3:27 10-Oceans and Streams
DR10      -1.22 dB   -13.49 dB      4:36 11-Things ain?t Like They Used to Be
--------------------------------------------------------------------------------
Number of tracks:  11
Official DR value: DR10
Samplerate:        192000 Hz
Channels:          2
Bits per sample:   24
Bitrate:           5331 kbps
Codec:             FLAC
================================================================================

Спектрограмма&#58;

Время раздачи: 24/7 до пяти скачавших, канал дохлый, терпеливо ждем и слушаем песенку With A Little Help from My Friends.
Яндекс.Метрика
Рейтинг@Mail.ru