[ Сегодня на трекере фрилич! Идет свободное скачивание без начисления Download ]

Сюжет видеоприложения к альбому "Рыбалка нового поколения " Интернациональный фидер (2014) WEB-Rip

 

Создавать темы 30-Июл-2014 05:41

-Сюжет видеоприложения к альбому "Рыбалка нового поколения " Интернациональный фидер. - Режиссер / Телекомпания: Сергей Попов
Год выпуска: 2014
Жанр: Документальный, Видовой, Спорт
Описание: Сюжет видео приложения к иллюстрированному альбому о современной рыбалке «Рыбалка нового поколения - Next Generation Fishing». Андрей Думчев (Россия) и Сергей Попов (Украина) проводят совместную рыболовную сессию на Москва реке. Ведущие рыболовы-спортсмены двух Братских Народов делятся уникальным опытом и обсуждают нюансы фидерной рыбалки в сложных условиях.
Участники: Андрей Думчев (Россия) и Сергей Попов (Украина)
Продолжительность: ~00:45:22
Видеокодек: Xvid
Битрейт видео: ~1713 kb/s
Размер кадра: 720 x 408
Качество видео: WEBRip
Аудиокодек: MP3, 2ch
Битрейт аудио: 128 kb/s

MediaInfo

Общее
Полное имя : C:\Documents and Settings\User\Рабочий стол\Рыбалка нового поколения - Интернациональный фидер.avi
Формат : AVI
Формат/Информация : Audio Video Interleave
Размер файла : 601 Мбайт
Продолжительность : 45 м.
Общий поток : 1851 Кбит/сек
Программа кодирования : VirtualDubMod 1.5.10.3 | www.virtualdub-fr.org || (build 2550/release)
Библиотека кодирования : VirtualDubMod build 2550/release
Видео
Идентификатор : 0
Формат : MPEG-4 Visual
Профиль формата : Advanced [email protected]
Параметр BVOP формата : 2
Параметр QPel формата : Нет
Параметр GMC формата : Без точки перехода
Параметр матрицы формата : Default (H.263)
Идентификатор кодека : XVID
Идентификатор кодека/Подсказка : XviD
Продолжительность : 45 м.
Битрейт : 1713 Кбит/сек
Ширина : 720 пикселей
Высота : 408 пикселей
Соотношение сторон : 16:9
Частота кадров : 25,000 кадров/сек
Цветовое пространство : YUV
Субдискретизация насыщенности : 4:2:0
Битовая глубина : 8 бит
Тип развёртки : Прогрессивная
Метод сжатия : С потерями
Бит/(Пиксели*Кадры) : 0.233
Размер потока : 556 Мбайт (93%)
Библиотека кодирования : XviD 1.2.1 (UTC 2008-12-04)
Аудио
Идентификатор : 1
Формат : MPEG Audio
Версия формата : Version 1
Профиль формата : Layer 3
Идентификатор кодека : 55
Идентификатор кодека/Подсказка : MP3
Продолжительность : 45 м.
Вид битрейта : Постоянный
Битрейт : 128 Кбит/сек
Каналы : 2 канала
Частота : 44,1 КГц
Метод сжатия : С потерями
Размер потока : 41,5 Мбайт (7%)
Выравнивание : Разделение по промежуткам
Продолжительность промежутка : 40 мс. (1,00 видеокадр)
Время предзагрузки промежутка : 500 мс.
Библиотека кодирования : LAME3.99r
Настройки программы : -m s -V 4 -q 2 -lowpass 17 -b 128
Скриншоты:Время раздачи: Круглосуточно до 10 скачавших
Яндекс.Метрика
Рейтинг@Mail.ru