Белка и Стрелка. Спортивная команда (Сезон 1 / Серии 1-3 из ?) (Святослав Ушаков, Инна Евланникова) [2014 г., мультфильм, детский, ... SATRip] (Обновляемая)

 

Создавать темы 30-Июл-2014 03:28

Белка и Стрелка. Спортивная команда- Режиссер / Телекомпания:
Русское название: Белка и Стрелка. Спортивная команда
Страна: Россия
Выпущено: киностудия «ЦНФ-Анима»
Год выпуска: 2014
Жанр: мультфильм, детский-Премьера (мир): 9 июня 2014-Режиссер: Святослав Ушаков, Инна Евланникова
В главных ролях: Лариса Брохман, Ольга Шорохова, Диомид Виноградов-Описание фильма:
Весёлые истории о состязании в зимних олимпийских видах спорта Белки, Стрелки и их команды с соперниками из других стран. Сериал рассказывает о том, что для победы недостаточно лишь силы, ловкости, дисциплины и тренировок. Без любви к спорту, сплоченности, взаимовыручки и уважения к противнику даже самый талантливый спортсмен не сможет победить.-Сезон: 1
Серии: 3 из ?? серий
Продолжительность: ~ 00:05:00 мин серия-Качество видео: SATRip
Формат: AVI
Видеокодек: XviD
Аудиокодек: AC-3
Видео: MPEG-4 Visual at 2100 Кбит/сек: 720 x 400 (1.800) at 25.000 fps, 0.29 Бит/Пиксели
Аудио Rus: AC-3 at 192 Кбит/сек: 2 канала, 48,0 КГц
- -

Список серий:

  • Нос по ветру
  • Кувырком
  • Коварная лыжня
-

MediaInfo:

Общее
Полное имя                               : E:\_Сериалы\_МультСериалы\Белка и Стрелка. Спортивная команда (2014)\001. Нос по ветру.avi
Формат                                   : AVI
Формат/Информация                        : Audio Video Interleave
Размер файла                             : 96,1 Мбайт
Продолжительность                        : 5 м. 50 с.
Общий поток                              : 2302 Кбит/сек
Режиссёр                                 : SATRip by Thunder
Программа кодирования                    : VirtualDubMod 1.5.10.3 | www.virtualdub-fr.org || (build 2550/release)
Формат оригинала/Имя                     : Cartoon
Видео
Идентификатор                            : 0
Формат                                   : MPEG-4 Visual
Профиль формата                          : Advanced [email protected]
Параметр BVOP формата                    : 2
Параметр QPel формата                    : Нет
Параметр GMC формата                     : Без точки перехода
Параметр матрицы формата                 : Default (H.263)
Идентификатор кодека                     : XVID
Идентификатор кодека/Подсказка           : XviD
Продолжительность                        : 5 м. 50 с.
Битрейт                                  : 2100 Кбит/сек
Ширина                                   : 720 пикселей
Высота                                   : 400 пикселей
Соотношение сторон                       : 16:9
Частота кадров                           : 25,000 кадров/сек
Цветовое пространство                    : YUV
Субдискретизация насыщенности            : 4:2:0
Битовая глубина                          : 8 бит
Тип развёртки                            : Прогрессивная
Метод сжатия                             : С потерями
Бит/(Пиксели*Кадры)                      : 0.292
Размер потока                            : 87,6 Мбайт (91%)
Библиотека кодирования                   : XviD 1.2.1 (UTC 2008-12-04)
Аудио
Идентификатор                            : 1
Формат                                   : AC-3
Формат/Информация                        : Audio Coding 3
Расширение режима                        : CM (complete main)
Параметр Endianness формата              : Big
Идентификатор кодека                     : 2000
Продолжительность                        : 5 м. 50 с.
Вид битрейта                             : Постоянный
Битрейт                                  : 192 Кбит/сек
Каналы                                   : 2 канала
Расположение каналов                     : Front: L R
Частота                                  : 48,0 КГц
Битовая глубина                          : 16 бит
Метод сжатия                             : С потерями
Размер потока                            : 8,01 Мбайт (8%)
Выравнивание                             : Разделение по промежуткам
Продолжительность промежутка             : 40  мс. (1,00 видеокадр)
Время предзагрузки промежутка            : 500  мс.
808571
-

Скриншот c названием фильма

-Скриншоты:
-

ЕщЕ

-

Внимание! Раздача ведётся путём добавления новых серий!

Внимание! Раздача ведётся путём добавления новых серий; при каждом добавлении создётся новый торрент. Чтобы начать докачку новой серии, пользователям необходимо сделать следующее:
(1) остановить скачивание,
(2) удалить старый торрент у себя из клиента (старые серии удалять не надо),
(3) скачать новый торрент и запустить его у себя в клиенте вместо старого, при этом указать клиенту путь в старую папку куда и должно происходить скачивание новых серий.
Ваш клиент при этом должен произвести хеширование (проверку) старой папки (если не производит сам - помогите ему сделать это), и будет докачивать только те серии которых у вас ещё нет. Старые серии при этом не удаляются, а продолжают раздаваться!
Eсли вы уже удалили старые серии, то предотвратить повторную закачку старых серий можно, отжав галочку в соответсвующих местах при запуске нового торрента.
-Добавлена третья серия первого сезона
Яндекс.Метрика
Рейтинг@Mail.ru