Последний корабль / The Last Ship (Сезон 1, серии 6 из 10) (Майкл Кэтлман / Michael Katleman, ...) [2014г., фантастика, боевик, триллер, драма, ... , WEB-DLRip] MVO (BaibaKo) + Original (Eng) [обновляемая]

 

Создавать темы 30-Июл-2014 03:19

Последний корабль / The Last Ship
«No cure. No country. No surrender»
- Русское название: Последний корабль
Оригинальное название: The Last Ship
Страна: США
Год выпуска: 2014
Жанр: фантастика, боевик, триллер, драма, ...-Премьера (мир): 6 июня 2014, ...-Релиз:
Перевод: Профессиональный (многоголосый, закадровый)
Оригинальный аудиопоток: английский-Над релизом работали:
Перевод: Фиона Кудреватых и vipere
Озвучка: Татьяна Оболевич, Виталий Ткаченко, Артемий Мирон и Денис Толяренко
Монтаж: Виталий Ткаченко
Обложка: tvblog-Режиссер: Майкл Кэтлман / Michael Katleman, Пол Холахан / Paul Holahan, Серджо Мимика-Геззан / Sergio Mimica-Gezzan , ...
Актеры: Рона Митра, Эрик Дэйн, Адам Болдуин, Михаэлла МакМанус, Трэвис Ван Винкл, Чарльз Парнелл, Кристина Элмор, Джоко Симс, Джон Пайпер-Фергюсон, ...-Описание фильма:
Глобальная пандемия уничтожает восемьдесят процентов населения планеты. Военный эсминец Соединенных Штатов отправляется в долгое путешествие с единственной задачей — выживать ровно столько, сколько потребуется для создания вакцины. И таким образом спасти человечество от вымирания.
Последний корабль — это экранизация постапокаллиптической новеллы, написанной в 1988 году американским писателем Уильямом Брайнкли. По сюжету книги в центре событий находится американский эсминец Натан Джеймс, который находится в плавании в тот момент, когда начинается ядерная война, уничтожающая всю цивилизацию на Земле. Команда занимается поисками безопасного места, где можно было бы высадиться и встретить хоть кого-то, кто мог выжить во время этой всемирной катастрофы. Ситуация на корабле накаляется и назревает бунт, но его удается избежать благодаря опытному капитану. Не смотря на то, что по сюжету книги экипаж обнаруживает последнюю подводную лодку СССР и входит с ней в контакт, на канале TNT заявили, что концовка сериала будет изменена. Ведь СССР уже не существует и не рассматривается как враг.
Сценарий сериала Последний корабль не будет в точности повторять историю из книги, а будет видоизменен под сегодняшние реалии. Вместо ядерной катастрофы, люди столкнуться с неизлечимым заболеванием, которое будет угрожать всему живому на Земле.-Сезон: 1
Серии: 6 из 10 серий
Продолжительность: ~ 00:45:00 мин серия-Качество видео: WEB-DLRip
Формат: AVI
Видеокодек: XviD
Аудиокодек: Mp3
Видео: MPEG-4 Visual at 1504 Кбит/сек: 720 x 400 (1.800) at 23.976 fps: 0.22 Бит/Пиксели
Аудио Rus: MPEG Audio at 192 Кбит/сек, 2 канала, 48,0 КГц |BaibaKo|
Аудио Eng: MPEG Audio at 192 Кбит/сек, 2 канала, 48,0 КГц |Original|
Cубтитры: отсутствуют
- -

Список серий:

  • Шестая стадия (Phase Six)
  • Добро пожаловать в Гуантанамо! (Welcome to Gitmo)
  • Счисление пути (Dead Reckoning)
  • Прорвёмся (We'll Get There)
  • Эль Торо (El Toro)
  • Строгая изоляция (Lockdown)


  • SOS (SOS)

  • (Two Sailors Walk Into a Bar...)

  • (Trials)

  • (No Place Like Home)
-

MediaInfo:

Общее
Полное имя                               : E:\_Сериалы\_NeW_\Новая папка\The.Last.Ship.s01e01.WEB-DLRip.XviD.Rus-Eng.BaibaKo.tv.avi
Формат                                   : AVI
Формат/Информация                        : Audio Video Interleave
Размер файла                             : 619 Мбайт
Продолжительность                        : 45 м.
Общий поток                              : 1902 Кбит/сек
Программа кодирования                    : VirtualDubMod 1.5.10.2 (build 2540/release)
Библиотека кодирования                   : VirtualDubMod build 2540/release
Видео
Идентификатор                            : 0
Формат                                   : MPEG-4 Visual
Профиль формата                          : Advanced [email protected]
Параметр BVOP формата                    : 2
Параметр QPel формата                    : Нет
Параметр GMC формата                     : Без точки перехода
Параметр матрицы формата                 : Default (H.263)
Идентификатор кодека                     : XVID
Идентификатор кодека/Подсказка           : XviD
Продолжительность                        : 45 м.
Битрейт                                  : 1504 Кбит/сек
Ширина                                   : 720 пикселей
Высота                                   : 400 пикселей
Соотношение сторон                       : 16:9
Частота кадров                           : 23,976 кадра/сек
Цветовое пространство                    : YUV
Субдискретизация насыщенности            : 4:2:0
Битовая глубина                          : 8 бит
Тип развёртки                            : Прогрессивная
Метод сжатия                             : С потерями
Бит/(Пиксели*Кадры)                      : 0.218
Размер потока                            : 490 Мбайт (79%)
Библиотека кодирования                   : XviD 1.2.1 (UTC 2008-12-04)
Аудио #1
Идентификатор                            : 1
Формат                                   : MPEG Audio
Версия формата                           : Version 1
Профиль формата                          : Layer 3
Режим                                    : Joint stereo
Расширение режима                        : MS Stereo
Идентификатор кодека                     : 55
Идентификатор кодека/Подсказка           : MP3
Продолжительность                        : 45 м.
Вид битрейта                             : Постоянный
Битрейт                                  : 192 Кбит/сек
Каналы                                   : 2 канала
Частота                                  : 48,0 КГц
Метод сжатия                             : С потерями
Размер потока                            : 62,5 Мбайт (10%)
Выравнивание                             : Соединение по промежуткам
Продолжительность промежутка             : 42  мс. (1,00 видеокадр)
Время предзагрузки промежутка            : 504  мс.
Аудио #2
Идентификатор                            : 2
Формат                                   : MPEG Audio
Версия формата                           : Version 1
Профиль формата                          : Layer 3
Режим                                    : Joint stereo
Расширение режима                        : MS Stereo
Идентификатор кодека                     : 55
Идентификатор кодека/Подсказка           : MP3
Продолжительность                        : 45 м.
Вид битрейта                             : Постоянный
Битрейт                                  : 192 Кбит/сек
Каналы                                   : 2 канала
Частота                                  : 48,0 КГц
Метод сжатия                             : С потерями
Размер потока                            : 62,5 Мбайт (10%)
Выравнивание                             : Соединение по промежуткам
Продолжительность промежутка             : 42  мс. (1,00 видеокадр)
Время предзагрузки промежутка            : 504  мс.
-

Скриншот c названием фильма

-Скриншоты:
-

Еще

-

Внимание! Раздача ведётся путём добавления новых серий!

Внимание! Раздача ведётся путём добавления новых серий; при каждом добавлении создаётся новый торрент. Чтобы начать докачку новой серии, пользователям необходимо сделать следующее:
(1) остановить скачивание,
(2) удалить старый торрент у себя из клиента (старые серии удалять не надо),
(3) скачать новый торрент и запустить его у себя в клиенте вместо старого, при этом указать клиенту путь в старую папку куда и должно происходить скачивание новых серий.
Ваш клиент при этом должен произвести хеширование (проверку) старой папки (если не производит сам - помогите ему сделать это), и будет докачивать только те серии которых у вас ещё нет. Старые серии при этом не удаляются, а продолжают раздаваться!
Eсли вы уже удалили старые серии, то предотвратить повторную закачку старых серий можно, отжав галочку в соответствующих местах при запуске нового торрента.
-Добавлена пятая серия первого сезона
Яндекс.Метрика
Рейтинг@Mail.ru