[ Сегодня на трекере фрилич! Идет свободное скачивание без начисления Download ]

Саботаж / Sabotage (2014) BDRip

 

Создавать темы 29-Июл-2014 21:29

-Саботаж / Sabotage (2014) BDRip- Год выпуска: 2014
Производство: США
Жанр: Боевик, триллер, драма, криминал
Режиссер: Дэвид Эйр / David Ayer
Актеры: Арнольд Шварценеггер, Терренс Ховард, Сэм Уортингтон, Макс Мартини, Оливия Уильямс, Мартин Донован, Мирей Инос, Кевин Вэнс, Джо Манганьелло, Джош Холлоуэй
Описание фильма:
История начинается с операции элитного подразделения из управления по борьбе с наркотиками, нагрянувшего на явочную квартиру наркокартеля. Команда решает скрыть от начальства, что в результате налёта они обогатились на миллионы долларов, но вскоре хранить тайну становится всё сложнее: кто-то по одному убирает всех участвовавших в операции.
Перевод: Дублированный

Дата мировой премьеры: 19 марта 2014
Дата российской премьеры: 17 апреля 2014
Дата выхода DVD / Blu Ray: 29 июля 2014
Продолжительность: 01:49:40
Качество видео: BDRip
Видеокодек: Xvid
Битрейт видео: ~1932 kbps
Размер кадра: 720x384
Аудио №1: AC3 5.1, 448 Kbps - Русский
Аудио №2: AC3 5.1, 448 Kbps - Английский
Сэмпл: Скачать
Релиз группа: HQ Underverse

MediaInfo

General
Complete name : D:\Video\Movies\Releases\Sabotage.2014.BDRip.XviD.AC3.Rus.D.Eng.O.HQ.Underverse.avi
Format : AVI
Format/Info : Audio Video Interleave
Format profile : OpenDML
File size : 2.18 GiB
Duration : 1h 49mn
Overall bit rate : 2 846 Kbps
Writing application : VirtualDubMod 1.5.10.3 | www.virtualdub-fr.org || (build 2550/release)
Writing library : VirtualDubMod build 2550/release
Video
ID : 0
Format : MPEG-4 Visual
Format profile : Advanced [email protected]
Format settings, BVOP : 1
Format settings, QPel : No
Format settings, GMC : No warppoints
Format settings, Matrix : Custom
Codec ID : XVID
Codec ID/Hint : XviD
Duration : 1h 49mn
Bit rate : 1 933 Kbps
Width : 720 pixels
Height : 384 pixels
Display aspect ratio : 1.85:1
Frame rate : 23.976 fps
Color space : YUV
Chroma subsampling : 4:2:0
Bit depth : 8 bits
Scan type : Progressive
Compression mode : Lossy
Bits/(Pixel*Frame) : 0.292
Stream size : 1.48 GiB (68%)
Writing library : XviD 64
Audio #1
ID : 1
Format : AC-3
Format/Info : Audio Coding 3
Mode extension : CM (complete main)
Format settings, Endianness : Big
Codec ID : 2000
Duration : 1h 49mn
Bit rate mode : Constant
Bit rate : 448 Kbps
Channel(s) : 6 channels
Channel positions : Front: L C R, Side: L R, LFE
Sampling rate : 48.0 KHz
Bit depth : 16 bits
Compression mode : Lossy
Stream size : 351 MiB (16%)
Alignment : Split accross interleaves
Interleave, duration : 42 ms (1.00 video frame)
Interleave, preload duration : 500 ms
Title : Russian Dub
Audio #2
ID : 2
Format : AC-3
Format/Info : Audio Coding 3
Mode extension : CM (complete main)
Format settings, Endianness : Big
Codec ID : 2000
Duration : 1h 49mn
Bit rate mode : Constant
Bit rate : 448 Kbps
Channel(s) : 6 channels
Channel positions : Front: L C R, Side: L R, LFE
Sampling rate : 48.0 KHz
Bit depth : 16 bits
Compression mode : Lossy
Stream size : 351 MiB (16%)
Alignment : Split accross interleaves
Interleave, duration : 42 ms (1.00 video frame)
Interleave, preload duration : 500 ms
Title : English
Скриншоты:
-Время раздачи: Сб-Вс с 09:00 до 23:30
Яндекс.Метрика
Рейтинг@Mail.ru