[ Сегодня на трекере фрилич! Идет свободное скачивание без начисления Download ]

В твоих глазах / In Your Eyes (2014) WEB-DL [H.264/720p-LQ] [VO]

 

Создавать темы 29-Июл-2014 16:02

-В твоих глазах / In Your Eyes (2014) WEB-DL [H.264/720p-LQ]- Год выпуска: 2014
Производство: США
Жанр: Фантастика, Драма, Мелодрама, Комедия
Режиссер: Брин Хилл
Продюсер: Кай Коул, Майкл Ройфф, Рэйчел Берк
Актеры: Зои Казан, Майкл Сталь-Дэвид, Никки Рид, Стив Харрис, Марк Фойерстин, Дженнифер Грей, Стив Хоуи, Кресс Уильямс, Престон Бэйли, Рид Бирни
Описание фильма:
Фильм рассказывает историю двух абсолютно разных людей, которые находятся в разных городах и ведут совершенно отличающуюся друг от друга жизнь. Но они оба имеют мощную связь между собой, и могут слышать и видеть друг друга на расстоянии...
Перевод: Одноголосый закадровый, любительский
Озвучка / Автор перевода: Евгений Данилов
Субтитры: Вшитые отключаемые
Язык субтитров: Русский, Английский

Дата мировой премьеры: 20 апреля 2014
Продолжительность: 01:45:44
Качество видео: WEB-DL
Видеокодек: MPEG-4 AVC/H.264
Битрейт видео: ~4055 kb/s
Размер кадра: 1280 x 720
Аудио 1: AC3 2.0, 192 kb/s, Русский
Аудио 2: AC3 2.0, 320 kb/s, Английский
Сэмпл: Скачать

MediaInfo:

Общее
Уникальный идентификатор : 180859082744207456013579952745652849059 (0x8810313BB2543DAD914C23850B3A89A3)
Полное имя : C:Торренты\В твоих глазах.2014.720p.WEB-DLRip.mkv
Формат : Matroska
Версия формата : Version 4 / Version 2
Размер файла : 3,44 Гбайт
Продолжительность : 1 ч. 45 м.
Общий поток : 4659 Кбит/сек
Дата кодирования : UTC 2014-07-25 06:54:33
Программа кодирования : mkvmerge v6.9.1 ('Blue Panther') 64bit built on Apr 18 2014 18:23:38
Библиотека кодирования : libebml v1.3.0 + libmatroska v1.4.1
Видео
Идентификатор : 1
Формат : AVC
Формат/Информация : Advanced Video Codec
Профиль формата : [url=mailto:[email protected]][email protected][/url]
Параметр CABAC формата : Да
Параметр ReFrames формата : 8 кадров
Идентификатор кодека : V_MPEG4/ISO/AVC
Продолжительность : 1 ч. 45 м.
Битрейт : 4055 Кбит/сек
Ширина : 1280 пикселей
Высота : 720 пикселей
Соотношение сторон : 16:9
Режим частоты кадров : Постоянный
Частота кадров : 23,976 кадра/сек
Цветовое пространство : YUV
Субдискретизация насыщенности : 4:2:0
Битовая глубина : 8 бит
Тип развёртки : Прогрессивная
Бит/(Пиксели*Кадры) : 0.184
Размер потока : 2,99 Гбайт (87%)
Язык : English
Default : Да
Forced : Да
Аудио #1
Идентификатор : 2
Формат : AC-3
Формат/Информация : Audio Coding 3
Расширение режима : CM (complete main)
Параметр Endianness формата : Big
Идентификатор кодека : A_AC3
Продолжительность : 1 ч. 45 м.
Вид битрейта : Постоянный
Битрейт : 192 Кбит/сек
Каналы : 2 канала
Расположение каналов : Front: L R
Частота : 48,0 КГц
Битовая глубина : 16 бит
Метод сжатия : С потерями
Размер потока : 145 Мбайт (4%)
Язык : Russian
Default : Да
Forced : Нет
Аудио #2
Идентификатор : 3
Формат : AC-3
Формат/Информация : Audio Coding 3
Расширение режима : CM (complete main)
Параметр Endianness формата : Big
Идентификатор кодека : A_AC3
Продолжительность : 1 ч. 45 м.
Вид битрейта : Постоянный
Битрейт : 320 Кбит/сек
Каналы : 2 канала
Расположение каналов : Front: L R
Частота : 48,0 КГц
Битовая глубина : 16 бит
Метод сжатия : С потерями
Размер потока : 242 Мбайт (7%)
Язык : English
Default : Нет
Forced : Нет
Текст #1
Идентификатор : 4
Формат : UTF-8
Идентификатор кодека : S_TEXT/UTF8
Идентификатор кодека/Информация : UTF-8 Plain Text
Язык : Russian
Default : Да
Forced : Нет
Текст #2
Идентификатор : 5
Формат : UTF-8
Идентификатор кодека : S_TEXT/UTF8
Идентификатор кодека/Информация : UTF-8 Plain Text
Язык : English
Default : Нет
Forced : Нет
Скриншоты:
-Время раздачи: с 10.00 до 22.00
Незабываем благодарить релизёров. Приятного просмотра.
Яндекс.Метрика
Рейтинг@Mail.ru