Неотправленное письмо (Михаил Калатозов) [1959 г., драма, приключения, DVDRip]

 

Создавать темы 29-Июл-2014 15:09

-Неотправленное письмо-- Производство: Мосфильм
Режиссер: Михаил Калатозов
Жанр: драма, приключения
Год выпуска: 1959 г.
Продолжительность: 1:36:00
Российская премьера: 27 июня 1960
В ролях: Иннокентий Смоктуновский, Татьяна Самойлова, Василий Ливанов, Евгений Урбанский-Описание: Их было четверо – начальник поисковой партии Константин Сабинин (Иннокентий Смоктуновский), проводник Сергей (Евгений Урбанский) и два геолога – Таня (Татьяна Самойлова) и Андрей (Василий Ливанов), только что окончившие институт. В течение многих дней они упорно вели поиски алмазов. Приближалась осень. Всё тяжелее становится таёжная походная жизнь. На исходе продовольствие. Надо кончать работу и ни с чем возвращаться в Москву. И вот когда дальнейшие поиски казались бессмысленными, Таня нашла алмазы. Ощущение гнетущей усталости сменилось у всех буйной радостью. Радостная весть передана по рации на Большую землю. Завтра прилетит самолёт, и группа отправится в Москву. А утром разметался по тайге пожар, отрезав геологам путь к лодкам с продовольствием и снаряжением. Пытаясь спасти лодки, погиб в огне проводник Сергей. На сотни километров тайга превратилась в огромный пылающий костёр. Нечем дышать, едкий чёрный дым затянул всё вокруг, каждый шаг опасен и труден, но трое идут и идут, пробираясь к реке. Повредил ногу Андрей, и вот уже Сабинин и Таня сгибаются под тяжестью носилок… Но однажды, проснувшись, они не нашли товарища: Андрей ушёл в тайгу, чтобы не быть обузой для Тани и Сабинина. Снег бережно укрыл скелеты сгоревших деревьев. Двое по-прежнему шли к реке. Таня не жаловалась, не плакала – словно все слезы выплакала в тот день, когда исчез Андрюша. Но сил оставалось всё меньше… К большой реке Сабинин добрался уже один. Река застыла, покрываясь льдом. Все медленнее двигался маленький плот Сабинина… Когда с вертолёта обнаружили плот, и на льдину спустились люди, веки Сабинина, запорошенные снегом, слегка дрогнули. Его сердце ещё билось…-Качество видео: DVDRip
Контейнер: MKV
Видео кодек: Другой MPEG4
Аудио кодек: MP3
Видео: 768x576, 3 000 Kbps, 23.976 fps
Аудио: 192 Kbps, 1 ch, 48.0 KHz
Cубтитры: английские
Формат субтитров: softsub (SSA/ASS)

Media Info

Format : Matroska
Format version : Version 2
File size : 2.15 GiB
Duration : 1h 36mn
Overall bit rate : 3 195 Kbps
Movie name : Neotpravlennoe.Pismo.1960.x264.BDRip.(AVC).ExKinoRay (Rip by Enigma-Vladislav71)
Encoded date : UTC 2012-03-29 19:16:34
Writing application : mkvmerge v4.0.0 ('The Stars were mine') сборка от Jun 6 2010 16:18:42
Writing library : libebml v1.0.0 + libmatroska v1.0.0
Video
ID : 1
Format : AVC
Format/Info : Advanced Video Codec
Format profile : [email protected]
Format settings, CABAC : Yes
Format settings, ReFrames : 8 frames
Codec ID : V_MPEG4/ISO/AVC
Duration : 1h 36mn
Bit rate : 3 000 Kbps
Width : 768 pixels
Height : 576 pixels
Display aspect ratio : 4:3
Frame rate mode : Constant
Frame rate : 23.976 fps
Color space : YUV
Chroma subsampling : 4:2:0
Bit depth : 8 bits
Scan type : Progressive
Bits/(Pixel*Frame) : 0.283
Stream size : 1.98 GiB (92%)
Writing library : x264 core 116 r2074 2641b9e
Encoding settings : cabac=1 / ref=8 / deblock=1:-2:-2 / analyse=0x3:0x133 / me=umh / subme=11 / psy=1 / psy_rd=1.00:0.00 / mixed_ref=1 / me_range=48 / chroma_me=1 / trellis=2 / 8x8dct=1 / cqm=0 / deadzone=21,11 / fast_pskip=0 / chroma_qp_offset=-2 / threads=3 / sliced_threads=0 / nr=0 / decimate=1 / interlaced=0 / bluray_compat=0 / constrained_intra=0 / bframes=8 / b_pyramid=2 / b_adapt=2 / b_bias=0 / direct=3 / weightb=1 / open_gop=0 / weightp=2 / keyint=250 / keyint_min=23 / scenecut=40 / intra_refresh=0 / rc=2pass / mbtree=0 / bitrate=3000 / ratetol=1.0 / qcomp=0.60 / qpmin=10 / qpmax=51 / qpstep=4 / cplxblur=20.0 / qblur=0.5 / ip_ratio=1.40 / pb_ratio=1.30 / aq=2:1.00
Language : English
Default : No
Forced : No
Audio
ID : 2
Format : AC-3
Format/Info : Audio Coding 3
Mode extension : CM (complete main)
Format settings, Endianness : Big
Codec ID : A_AC3
Duration : 1h 36mn
Bit rate mode : Constant
Bit rate : 192 Kbps
Channel count : 1 channel
Channel positions : Front: C
Sampling rate : 48.0 KHz
Bit depth : 16 bits
Compression mode : Lossy
Stream size : 132 MiB (6%)
Language : Russian
Default : Yes
Forced : No
Text
ID : 3
Format : UTF-8
Codec ID : S_TEXT/UTF8
Codec ID/Info : UTF-8 Plain Text
Language : English
Default : Yes
Forced : No

Скриншот c названием фильма

Скриншоты

Яндекс.Метрика
Рейтинг@Mail.ru