(Eurodance) Mo-Do - Was Ist Das? - 1995, FLAC (image+.cue), lossless

 

Создавать темы 26-Июл-2014 21:57

Mo-Do - Was Ist Das?- Жанр: Eurodance
Год выпуска диска: 1995
Производитель диска: Германия
Аудио кодек: FLAC
Тип рипа: image+.cue
Битрейт аудио: lossless
Продолжительность: 00:53:21
Лэйбл / кат.номер: Metronome Records / 4509-99544-2
Источник / релизёр: djeugene-Треклист:
01. Eins, Zwei, Polizei (5:15)
02. Hamlet (4:12)
03. Gema Tanzen (4:16)
04. Liebes Tango (4:14)
05. Fur Dich, My Love (4:55)
06. Hallo, Mo-Do (5:07)
07. Super Gut (5:53)
08. Das Konzert (4:54)
09. Eins, Zwei, Polizei (Reprise) (2:03)
10. Super Gut (Rmx) (5:07)
11. Eins, Zwei, Polizei (Rmx) (7:26)-Единственный студийный альбом итальянской группы Mo-Do. Сканы раскладок, обложек и диска прилагаются (600dpi, PNG). Естественно, собственноручно сделанный рип оригинального диска из личной коллекции.-

Фото диска

Отчет EAC

Exact Audio Copy V0.99 prebeta 4 from 23. January 2008
Отчёт EAC об извлечении, выполненном 9. марта 2009, 15:41
Mo-Do / Was Ist Das?
Дисковод: PLEXTOR DVDR   PX-755A   Adapter: 0  ID: 0
Режим чтения                 : Достоверность
Использование точного потока : Да
Отключение кэша аудио        : Да
Использование указателей C2  : Нет
Коррекция смещения при чтении                     : 30
Способность читать области Lead-in и Lead-out     : Нет
Заполнение пропущенных сэмплов тишиной            : Да
Удаление блоков с тишиной в начале и конце        : Нет
При вычислениях CRC использовались нулевые сэмплы : Да
Интерфейс                                         : Установленный внешний ASPI-интерфейс
Выходной формат : Внутренние WAV-операции
Формат сэмплов  : 44.100 Гц; 16 бит; стерео
TOC извлечённого CD
     Трек |   Старт  | Длительность | Начальный сектор | Конечный сектор
    ---------------------------------------------------------------------
       1  |  0:00.00 |    5:14.62   |           0      |      23611
       2  |  5:14.62 |    4:12.35   |       23612      |      42546
       3  |  9:27.22 |    4:16.00   |       42547      |      61746
       4  | 13:43.22 |    4:13.53   |       61747      |      80774
       5  | 17:57.00 |    4:55.17   |       80775      |     102916
       6  | 22:52.17 |    5:07.28   |      102917      |     125969
       7  | 27:59.45 |    5:52.50   |      125970      |     152419
       8  | 33:52.20 |    4:54.02   |      152420      |     174471
       9  | 38:46.22 |    2:02.38   |      174472      |     183659
      10  | 40:48.60 |    5:06.60   |      183660      |     206669
      11  | 45:55.45 |    7:26.10   |      206670      |     240129
Характеристики диапазона извлечения и сообщения об ошибках
Выбранный диапазон
     Имя файла D:\Eurodance Uncompress\Mo-Do - Was Ist Das (1995-FLAC-aZo)\Mo-Do - Was Ist Das.wav
     Пиковый уровень 100.0 %
     Качество диапазона 99.9 %
     CRC теста CA6F8668
     CRC копии CA6F8668
     Копирование... OK
Ошибок не произошло
AccurateRip: сводка
Трек  1  нет в базе данных
Трек  2  нет в базе данных
Трек  3  нет в базе данных
Трек  4  нет в базе данных
Трек  5  нет в базе данных
Трек  6  нет в базе данных
Трек  7  нет в базе данных
Трек  8  нет в базе данных
Трек  9  нет в базе данных
Трек 10  нет в базе данных
Трек 11  нет в базе данных
Ни одного трека нет в базе AccurateRip
Конец отчёта
Яндекс.Метрика
Рейтинг@Mail.ru