Французский шпион (Алексей Феоктистов) [2014 г., боевик, детектив, WEBRip] (Оригинальное)

 

Создавать темы 26-Июл-2014 15:13

-Французский шпион-- Производство: Россия
Режиссер: Алексей Феоктистов
Жанр: боевик, детектив
Год выпуска: 2014 г.
Продолжительность: 01:34:23
Российская премьера: 25 июля 2014
Дата выхода DVD: 5 августа 2014, «Активижен», ...
В ролях: Оскар Кучера, Анна Чурина, Дмитрий Супонин, Евгений Редько, Сергей Стёпин, Фаридуншо Рахматуллоев, Валерий Новиков, Рустам Абдрашитов, Бесо Гатаев, Данила Якушев-Описание: 1990 год. Вывод советских войск из Чехословакии. Часть, в которой служил лейтенант Андрей Канаев, расформирована. В результате устроенной приятелем Андрея авантюры он оказывается во Франции, где поступает в "Иностранный легион". Здесь молодой лейтенант будет втянут в шпионскую деятельность против России и ему предстоит сделать серьезный нравственный выбор, умело лавируя между западными и российскими спецслужбами.-Сэмпл КиноПоиск
Качество видео: WEBRip
Контейнер: AVI
Видео кодек: XviD
Аудио кодек: AC3
Видео: 720x400 (1.80:1), 25 fps, XviD build 50 ~1841 kbps avg, 0.26 bit/pixel
Аудио: 48 kHz, AC3 Dolby Digital, 2/0 (L,R) ch, ~224 kbps
Cубтитры: отсутствуют

Media Info

Общее
Полное имя : W:\Francuzkiy.Shpion.2014.O.DVDRip.1400MB.avi
Формат : AVI
Формат/Информация : Audio Video Interleave
Размер файла : 1,37 Гбайт
Продолжительность : 1 ч. 34 м.
Общий поток : 2076 Кбит/сек
Программа кодирования : VirtualDubMod 1.5.10.3 | www.virtualdub-fr.org || (build 2550/release)
Библиотека кодирования : VirtualDubMod build 2550/release
Видео
Идентификатор : 0
Формат : MPEG-4 Visual
Профиль формата : Advanced [email protected]
Параметр BVOP формата : 2
Параметр QPel формата : Нет
Параметр GMC формата : Без точки перехода
Параметр матрицы формата : Default (MPEG)
Идентификатор кодека : XVID
Идентификатор кодека/Подсказка : XviD
Продолжительность : 1 ч. 34 м.
Битрейт : 1842 Кбит/сек
Ширина : 720 пикс.
Высота : 400 пикс.
Соотношение сторон : 16:9
Частота кадров : 25,000 кадр/сек
Цветовое пространство : YUV
Подвыборка цветности : 4:2:0
Битовая глубина : 8 бит
Тип развёртки : Прогрессивная
Метод сжатия : С потерями
Бит/(Пиксели*Кадры) : 0.256
Размер потока : 1,21 Гбайт (89%)
Библиотека кодирования : XviD 1.2.1 (UTC 2008-12-04)
Аудио
Идентификатор : 1
Формат : AC-3
Формат/Информация : Audio Coding 3
Расширение режима : CM (complete main)
Идентификатор кодека : 2000
Продолжительность : 1 ч. 34 м.
Вид битрейта : Постоянный
Битрейт : 224 Кбит/сек
Канал(ы) : 2 канала(ов)
Расположение каналов : Front: L R
Частота : 48,0 КГц
Битовая глубина : 16 бит
Метод сжатия : С потерями
Размер потока : 151 Мбайт (11%)
Выравнивание : Разделение по промежуткам
Продолжительность промежутка : 40 мс. (1,00 видеокадр)
Время предзагрузки промежутка : 500 ms

Скриншоты

Яндекс.Метрика
Рейтинг@Mail.ru