VA - Лоракс / Dr. Seuss' The Lorax (2012) [AAC|WEB-DL|256 кб/с]<Soundtrack>

 

Создавать темы 25-Июл-2014 20:19

-VA - Лоракс / Dr. Seuss' The Lorax (2012)- Год: 2012
Жанр: Soundtrack
Продолжительность: 00:34:06
Кодек: AAC
Битрейт: 256 кб/с
Тип битрейта: VBR
Треклист:
01 - Ester Dean - Let it Grow (Celebrate the World)
02 - The Lorax Singers - Thneedville
03 - Ed Helms feat. The Lorax Singers - This is the Place [Tricky Version]
04 - Ed Helms and The 88 feat. The Lorax Singers - Everybody Needs a Thneed
05 - Ed Helms feat. The Lorax Singers - How Bad Can I Be?
06 - The Lorax Singers - Let it Grow
07 - Jenny Slate feat. The Lorax Singers - Let it Grow Gospel Ending [Original Demo]
08 - Fletcher Sheridan feat. The Lorax Singers - Thneedville [Original Demo]
09 - Ed Helms - The Once-ler's Traveling Madness [Original Demo]
10 - Randy Crenshaw feat. The Lorax Singers - I Love Nature [Original Demo]
11 - Keith Slettedahl and The 88 feat. Antonio Sol, Fletcher Sheridan and Taylor Graves - You Need a Thneed
12 - Fletcher Sheridan and Randy Crenshaw feat. The Lorax Singers - Nobody Needs a Thneed [Original Demo]
13 - Gabriel Mann, Randy Crenshaw and The 88 feat. The Lorax Singers - Biggering [Original Demo]

MI

General
Complete name                            : D:\Sound\Music\Soundtracks\Lorax\VA - Dr. Seuss' The Lorax - OST (2012) [AAC]\01 Let It Grow (Celebrate the World).m4a
Format                                   : MPEG-4
Format profile                           : Apple audio with iTunes info
Codec ID                                 : M4A
File size                                : 7.52 MiB
Duration                                 : 3mn 39s
Overall bit rate mode                    : Variable
Overall bit rate                         : 288 Kbps
Album                                    : Dr. Seuss' The Lorax (Original Songs from the Motion Picture)
Album/Performer                          : Various Artists
Part/Position                            : 1
Part/Total                               : 1
Track name                               : Let It Grow (Celebrate the World)
Track name/Position                      : 1
Track name/Total                         : 13
Compilation                              : Yes
Performer                                : Ester Dean
Composer                                 : Ester Dean, Christopher "Tricky" Stewart, John Powell, Cinco Paul & Aaron Pearce
Genre                                    : Soundtrack
ContentType                              : Music
Recorded date                            : UTC 2012-02-28 08:00:00
Tagged date                              : UTC 2012-03-03 19:14:10
Copyright                                : ℗ 2012 Interscope Records
Service name                             : iTunes
Cover                                    : Yes
Rating                                   : None
AppleStoreAccount                        : [url=mailto:[email protected]][email protected][/url]
AppleStoreCatalogID                      : 503605748
AlbumTitleID                             : 326877239
cmID                                     : 46105076
PlayListID                               : 503605706
GenreID                                  : 16
AppleStoreCountry                        : United States
AppleStoreAccountType                    : iTunes
PurchaseDate                             : 2012-03-03 12:05:53
Vendor                                   : Universal:isrc:USUM71201162
iTunMOVI                                 :  /  /  /  /   asset-info /    /     file-size /     7885211 /     flavor /     2:256 /    /  /
Audio
ID                                       : 1
Format                                   : AAC
Format/Info                              : Advanced Audio Codec
Format profile                           : LC
Codec ID                                 : 40
Duration                                 : 3mn 39s
Bit rate mode                            : Variable
Bit rate                                 : 256 Kbps
Maximum bit rate                         : 326 Kbps
Channel(s)                               : 2 channels
Channel positions                        : Front: L R
Sampling rate                            : 44.1 KHz
Compression mode                         : Lossy
Stream size                              : 6.95 MiB (92%)
Language                                 : English
Tagged date                              : UTC 2012-03-03 19:14:10
General
Complete name                            : D:\Sound\Music\Soundtracks\Lorax\VA - Dr. Seuss' The Lorax - OST (2012) [AAC]\02 Thneedville (feat. The Lorax Sing.m4a
Format                                   : MPEG-4
Format profile                           : Apple audio with iTunes info
Codec ID                                 : M4A
File size                                : 5.86 MiB
Duration                                 : 2mn 44s
Overall bit rate mode                    : Variable
Overall bit rate                         : 299 Kbps
Album                                    : Dr. Seuss' The Lorax (Original Songs from the Motion Picture)
Album/Performer                          : Various Artists
Part/Position                            : 1
Part/Total                               : 1
Track name                               : Thneedville (feat. The Lorax Singers)
Track name/Position                      : 2
Track name/Total                         : 13
Compilation                              : Yes
Performer                                : Fletcher Sheridan, Antonio Sol, Beth Anderson, Oliver Powell, Edie Lehmann Boddicker, Missi Hale & Rob Riggle
Composer                                 : John Powell & Cinco Paul
Genre                                    : Soundtrack
ContentType                              : Music
Recorded date                            : UTC 2012-02-28 08:00:00
Encoded date                             : UTC 1978-12-19 07:07:55
Tagged date                              : UTC 2012-03-03 19:11:05
Copyright                                : ℗ 2012 Interscope Records
Service name                             : iTunes
Cover                                    : Yes
Rating                                   : None
AppleStoreAccount                        : [url=mailto:[email protected]][email protected][/url]
AppleStoreCatalogID                      : 503605791
AlbumTitleID                             : 439665388
cmID                                     : 452269692
PlayListID                               : 503605706
GenreID                                  : 16
AppleStoreCountry                        : United States
AppleStoreAccountType                    : iTunes
PurchaseDate                             : 2012-03-03 12:05:53
Vendor                                   : Universal:isrc:USUM71201163
iTunMOVI                                 :  /  /  /  /   asset-info /    /     file-size /     6145127 /     flavor /     2:256 /    /  /
Audio
ID                                       : 1
Format                                   : AAC
Format/Info                              : Advanced Audio Codec
Format profile                           : LC
Codec ID                                 : 40
Duration                                 : 2mn 44s
Bit rate mode                            : Variable
Bit rate                                 : 270 Kbps
Nominal bit rate                         : 256 Kbps
Maximum bit rate                         : 314 Kbps
Channel(s)                               : 2 channels
Channel positions                        : Front: L R
Sampling rate                            : 44.1 KHz
Compression mode                         : Lossy
Stream size                              : 5.30 MiB (90%)
Language                                 : English
Encoded date                             : UTC 1978-12-19 07:07:55
Tagged date                              : UTC 2012-03-03 19:11:05
General
Complete name                            : D:\Sound\Music\Soundtracks\Lorax\VA - Dr. Seuss' The Lorax - OST (2012) [AAC]\03 This Is the Place (feat. The Lora.m4a
Format                                   : MPEG-4
Format profile                           : Apple audio with iTunes info
Codec ID                                 : M4A
File size                                : 5.08 MiB
Duration                                 : 2mn 24s
Overall bit rate mode                    : Variable
Overall bit rate                         : 295 Kbps
Album                                    : Dr. Seuss' The Lorax (Original Songs from the Motion Picture)
Album/Performer                          : Various Artists
Part/Position                            : 1
Part/Total                               : 1
Track name                               : This Is the Place (feat. The Lorax Singers) [Tricky Version]
Track name/Position                      : 3
Track name/Total                         : 13
Compilation                              : Yes
Performer                                : Ed Helms
Composer                                 : John Powell & Cinco Paul
Genre                                    : Soundtrack
ContentType                              : Music
Recorded date                            : UTC 2012-02-28 08:00:00
Encoded date                             : UTC 1987-06-22 04:32:11
Tagged date                              : UTC 2012-03-03 19:10:07
Copyright                                : ℗ 2012 Interscope Records
Service name                             : iTunes
Cover                                    : Yes
Comment                                  : (Tricky Version)
Rating                                   : None
AppleStoreAccount                        : [url=mailto:[email protected]][email protected][/url]
AppleStoreCatalogID                      : 503605816
AlbumTitleID                             : 295147557
cmID                                     : 452269692
PlayListID                               : 503605706
GenreID                                  : 16
AppleStoreCountry                        : United States
AppleStoreAccountType                    : iTunes
PurchaseDate                             : 2012-03-03 12:05:53
Vendor                                   : Universal:isrc:USUM71201164
iTunMOVI                                 :  /  /  /  /   asset-info /    /     file-size /     5327086 /     flavor /     2:256 /    /  /
Audio
ID                                       : 1
Format                                   : AAC
Format/Info                              : Advanced Audio Codec
Format profile                           : LC
Codec ID                                 : 40
Duration                                 : 2mn 24s
Bit rate mode                            : Variable
Bit rate                                 : 256 Kbps
Maximum bit rate                         : 368 Kbps
Channel(s)                               : 2 channels
Channel positions                        : Front: L R
Sampling rate                            : 44.1 KHz
Compression mode                         : Lossy
Stream size                              : 4.52 MiB (89%)
Language                                 : English
Encoded date                             : UTC 1987-06-22 04:32:11
Tagged date                              : UTC 2012-03-03 19:10:07
General
Complete name                            : D:\Sound\Music\Soundtracks\Lorax\VA - Dr. Seuss' The Lorax - OST (2012) [AAC]\04 Everybody Needs a Thneed (feat. T.m4a
Format                                   : MPEG-4
Format profile                           : Apple audio with iTunes info
Codec ID                                 : M4A
File size                                : 3.45 MiB
Duration                                 : 1mn 31s
Overall bit rate mode                    : Variable
Overall bit rate                         : 315 Kbps
Album                                    : Dr. Seuss' The Lorax (Original Songs from the Motion Picture)
Album/Performer                          : Various Artists
Part/Position                            : 1
Part/Total                               : 1
Track name                               : Everybody Needs a Thneed (feat. The Lorax Singers)
Track name/Position                      : 4
Track name/Total                         : 13
Compilation                              : Yes
Performer                                : Ed Helms, Randy Crenshaw, Fletcher Sheridan, Edie Lehmann Boddicker, Monique Donnelly, Ty Taylor & The 88
Composer                                 : John Powell & Cinco Paul
Genre                                    : Soundtrack
ContentType                              : Music
Recorded date                            : UTC 2012-02-28 08:00:00
Encoded date                             : UTC 1993-11-07 08:35:23
Tagged date                              : UTC 2012-03-03 19:19:08
Copyright                                : ℗ 2012 Interscope Records
Service name                             : iTunes
Cover                                    : Yes
Rating                                   : None
AppleStoreAccount                        : [url=mailto:[email protected]][email protected][/url]
AppleStoreCatalogID                      : 503605817
AlbumTitleID                             : 295147557
cmID                                     : 452269692
PlayListID                               : 503605706
GenreID                                  : 16
AppleStoreCountry                        : United States
AppleStoreAccountType                    : iTunes
PurchaseDate                             : 2012-03-03 12:05:53
Vendor                                   : Universal:isrc:USUM71201165
iTunMOVI                                 :  /  /  /  /   asset-info /    /     file-size /     3614152 /     flavor /     2:256 /    /  /
Audio
ID                                       : 1
Format                                   : AAC
Format/Info                              : Advanced Audio Codec
Format profile                           : LC
Codec ID                                 : 40
Duration                                 : 1mn 31s
Bit rate mode                            : Variable
Bit rate                                 : 256 Kbps
Maximum bit rate                         : 390 Kbps
Channel(s)                               : 2 channels
Channel positions                        : Front: L R
Sampling rate                            : 44.1 KHz
Compression mode                         : Lossy
Stream size                              : 2.90 MiB (84%)
Language                                 : English
Encoded date                             : UTC 1993-11-07 08:35:23
Tagged date                              : UTC 2012-03-03 19:19:08
General
Complete name                            : D:\Sound\Music\Soundtracks\Lorax\VA - Dr. Seuss' The Lorax - OST (2012) [AAC]\05 How Bad Can I Be_ (feat. The Lora.m4a
Format                                   : MPEG-4
Format profile                           : Apple audio with iTunes info
Codec ID                                 : M4A
File size                                : 6.00 MiB
Duration                                 : 2mn 52s
Overall bit rate mode                    : Variable
Overall bit rate                         : 292 Kbps
Album                                    : Dr. Seuss' The Lorax (Original Songs from the Motion Picture)
Album/Performer                          : Various Artists
Part/Position                            : 1
Part/Total                               : 1
Track name                               : How Bad Can I Be? (feat. The Lorax Singers)
Track name/Position                      : 5
Track name/Total                         : 13
Compilation                              : Yes
Performer                                : Ed Helms
Composer                                 : John Powell, Cinco Paul & Allan Peter Grigg
Genre                                    : Soundtrack
ContentType                              : Music
Recorded date                            : UTC 2012-02-28 08:00:00
Encoded date                             : UTC 2003-06-03 14:40:11
Tagged date                              : UTC 2012-03-03 19:20:02
Copyright                                : ℗ 2012 Interscope Records
Service name                             : iTunes
Cover                                    : Yes
Rating                                   : None
AppleStoreAccount                        : [url=mailto:[email protected]][email protected][/url]
AppleStoreCatalogID                      : 503605820
AlbumTitleID                             : 295147557
cmID                                     : 354050095
PlayListID                               : 503605706
GenreID                                  : 16
AppleStoreCountry                        : United States
AppleStoreAccountType                    : iTunes
PurchaseDate                             : 2012-03-03 12:05:53
Vendor                                   : Universal:isrc:USUM71201166
iTunMOVI                                 :  /  /  /  /   asset-info /    /     file-size /     6294267 /     flavor /     2:256 /    /  /
Audio
ID                                       : 1
Format                                   : AAC
Format/Info                              : Advanced Audio Codec
Format profile                           : LC
Codec ID                                 : 40
Duration                                 : 2mn 52s
Bit rate mode                            : Variable
Bit rate                                 : 256 Kbps
Maximum bit rate                         : 292 Kbps
Channel(s)                               : 2 channels
Channel positions                        : Front: L R
Sampling rate                            : 44.1 KHz
Compression mode                         : Lossy
Stream size                              : 5.44 MiB (91%)
Language                                 : English
Encoded date                             : UTC 2003-06-03 14:40:11
Tagged date                              : UTC 2012-03-03 19:20:02
General
Complete name                            : D:\Sound\Music\Soundtracks\Lorax\VA - Dr. Seuss' The Lorax - OST (2012) [AAC]\06 Let It Grow (feat. The Lorax Sing.m4a
Format                                   : MPEG-4
Format profile                           : Apple audio with iTunes info
Codec ID                                 : M4A
File size                                : 6.82 MiB
Duration                                 : 3mn 17s
Overall bit rate mode                    : Variable
Overall bit rate                         : 289 Kbps
Album                                    : Dr. Seuss' The Lorax (Original Songs from the Motion Picture)
Album/Performer                          : Various Artists
Part/Position                            : 1
Part/Total                               : 1
Track name                               : Let It Grow (feat. The Lorax Singers)
Track name/Position                      : 6
Track name/Total                         : 13
Compilation                              : Yes
Performer                                : Fletcher Sheridan, Dan Navarro, Edie Lehmann Boddicker, Jenny Slate, Claira Titman, Betty White, Rob Riggle & Ed Helms
Composer                                 : John Powell & Cinco Paul
Genre                                    : Soundtrack
ContentType                              : Music
Recorded date                            : UTC 2012-02-28 08:00:00
Encoded date                             : UTC 2014-01-20 05:25:31
Tagged date                              : UTC 2012-03-03 19:20:41
Copyright                                : ℗ 2012 Interscope Records
Service name                             : iTunes
Cover                                    : Yes
Rating                                   : None
AppleStoreAccount                        : [url=mailto:[email protected]][email protected][/url]
AppleStoreCatalogID                      : 503605821
AlbumTitleID                             : 439665388
cmID                                     : 452269692
PlayListID                               : 503605706
GenreID                                  : 16
AppleStoreCountry                        : United States
AppleStoreAccountType                    : iTunes
PurchaseDate                             : 2012-03-03 12:05:53
Vendor                                   : Universal:isrc:USUM71201167
iTunMOVI                                 :  /  /  /  /   asset-info /    /     file-size /     7148624 /     flavor /     2:256 /    /  /
Audio
ID                                       : 1
Format                                   : AAC
Format/Info                              : Advanced Audio Codec
Format profile                           : LC
Codec ID                                 : 40
Duration                                 : 3mn 17s
Bit rate mode                            : Variable
Bit rate                                 : 256 Kbps
Maximum bit rate                         : 374 Kbps
Channel(s)                               : 2 channels
Channel positions                        : Front: L R
Sampling rate                            : 44.1 KHz
Compression mode                         : Lossy
Stream size                              : 6.25 MiB (92%)
Language                                 : English
Encoded date                             : UTC 2014-01-20 05:25:31
Tagged date                              : UTC 2012-03-03 19:20:41
General
Complete name                            : D:\Sound\Music\Soundtracks\Lorax\VA - Dr. Seuss' The Lorax - OST (2012) [AAC]\07 Let It Grow Gospel Ending (feat..m4a
Format                                   : MPEG-4
Format profile                           : Apple audio with iTunes info
Codec ID                                 : M4A
File size                                : 2.15 MiB
Duration                                 : 52s 965ms
Overall bit rate mode                    : Variable
Overall bit rate                         : 340 Kbps
Album                                    : Dr. Seuss' The Lorax (Original Songs from the Motion Picture)
Album/Performer                          : Various Artists
Part/Position                            : 1
Part/Total                               : 1
Track name                               : Let It Grow Gospel Ending (feat. The Lorax Singers) [Original Demo]
Track name/Position                      : 7
Track name/Total                         : 13
Compilation                              : Yes
Performer                                : Jenny Slate
Composer                                 : John Powell & Cinco Paul
Genre                                    : Soundtrack
ContentType                              : Music
Recorded date                            : UTC 2012-02-28 08:00:00
Encoded date                             : UTC 2019-05-16 00:48:11
Tagged date                              : UTC 2012-03-03 19:14:59
Copyright                                : ℗ 2012 Interscope Records
Service name                             : iTunes
Cover                                    : Yes
Comment                                  : (Original Demo)
Rating                                   : None
AppleStoreAccount                        : [url=mailto:[email protected]][email protected][/url]
AppleStoreCatalogID                      : 503605829
AlbumTitleID                             : 503605824
cmID                                     : 452269692
PlayListID                               : 503605706
GenreID                                  : 16
AppleStoreCountry                        : United States
AppleStoreAccountType                    : iTunes
PurchaseDate                             : 2012-03-03 12:05:53
Vendor                                   : Universal:isrc:USUM71201168
iTunMOVI                                 :  /  /  /  /   asset-info /    /     file-size /     2249998 /     flavor /     2:256 /    /  /
Audio
ID                                       : 1
Format                                   : AAC
Format/Info                              : Advanced Audio Codec
Format profile                           : LC
Codec ID                                 : 40
Duration                                 : 52s 965ms
Bit rate mode                            : Variable
Bit rate                                 : 256 Kbps
Maximum bit rate                         : 305 Kbps
Channel(s)                               : 2 channels
Channel positions                        : Front: L R
Sampling rate                            : 44.1 KHz
Compression mode                         : Lossy
Stream size                              : 1.60 MiB (75%)
Language                                 : English
Encoded date                             : UTC 2019-05-16 00:48:11
Tagged date                              : UTC 2012-03-03 19:14:59
General
Complete name                            : D:\Sound\Music\Soundtracks\Lorax\VA - Dr. Seuss' The Lorax - OST (2012) [AAC]\08 Thneedville (feat. The Lorax Sing.m4a
Format                                   : MPEG-4
Format profile                           : Apple audio with iTunes info
Codec ID                                 : M4A
File size                                : 8.15 MiB
Duration                                 : 3mn 58s
Overall bit rate mode                    : Variable
Overall bit rate                         : 286 Kbps
Album                                    : Dr. Seuss' The Lorax (Original Songs from the Motion Picture)
Album/Performer                          : Various Artists
Part/Position                            : 1
Part/Total                               : 1
Track name                               : Thneedville (feat. The Lorax Singers) [Original Demo]
Track name/Position                      : 8
Track name/Total                         : 13
Compilation                              : Yes
Performer                                : Fletcher Sheridan
Composer                                 : John Powell & Cinco Paul
Genre                                    : Soundtrack
ContentType                              : Music
Recorded date                            : UTC 2012-02-28 08:00:00
Encoded date                             : UTC 2032-02-17 08:54:35
Tagged date                              : UTC 2012-03-03 19:23:41
Copyright                                : ℗ 2012 Interscope Records
Service name                             : iTunes
Cover                                    : Yes
Comment                                  : (Original Demo)
Rating                                   : None
AppleStoreAccount                        : [url=mailto:[email protected]][email protected][/url]
AppleStoreCatalogID                      : 503605830
AlbumTitleID                             : 439665388
cmID                                     : 452269692
PlayListID                               : 503605706
GenreID                                  : 16
AppleStoreCountry                        : United States
AppleStoreAccountType                    : iTunes
PurchaseDate                             : 2012-03-03 12:05:53
Vendor                                   : Universal:isrc:USUM71201169
iTunMOVI                                 :  /  /  /  /   asset-info /    /     file-size /     8545838 /     flavor /     2:256 /    /  /
Audio
ID                                       : 1
Format                                   : AAC
Format/Info                              : Advanced Audio Codec
Format profile                           : LC
Codec ID                                 : 40
Duration                                 : 3mn 58s
Bit rate mode                            : Variable
Bit rate                                 : 256 Kbps
Maximum bit rate                         : 415 Kbps
Channel(s)                               : 2 channels
Channel positions                        : Front: L R
Sampling rate                            : 44.1 KHz
Compression mode                         : Lossy
Stream size                              : 7.58 MiB (93%)
Language                                 : English
Encoded date                             : UTC 2032-02-17 08:54:35
Tagged date                              : UTC 2012-03-03 19:23:41
General
Complete name                            : D:\Sound\Music\Soundtracks\Lorax\VA - Dr. Seuss' The Lorax - OST (2012) [AAC]\09 The Once-ler's Traveling Madness.m4a
Format                                   : MPEG-4
Format profile                           : Apple audio with iTunes info
Codec ID                                 : M4A
File size                                : 3.58 MiB
Duration                                 : 1mn 35s
Overall bit rate mode                    : Variable
Overall bit rate                         : 314 Kbps
Album                                    : Dr. Seuss' The Lorax (Original Songs from the Motion Picture)
Album/Performer                          : Various Artists
Part/Position                            : 1
Part/Total                               : 1
Track name                               : The Once-ler's Traveling Madness (Original Demo)
Track name/Position                      : 9
Track name/Total                         : 13
Compilation                              : Yes
Performer                                : Ed Helms
Composer                                 : Ed Helms, John Powell & Cinco Paul
Genre                                    : Soundtrack
ContentType                              : Music
Recorded date                            : UTC 2012-02-28 08:00:00
Tagged date                              : UTC 2012-03-03 19:23:23
Copyright                                : ℗ 2012 Interscope Records
Service name                             : iTunes
Cover                                    : Yes
Comment                                  : (Original Demo)
Rating                                   : None
AppleStoreAccount                        : [url=mailto:[email protected]][email protected][/url]
AppleStoreCatalogID                      : 503605831
AlbumTitleID                             : 295147557
cmID                                     : 452269692
PlayListID                               : 503605706
GenreID                                  : 16
AppleStoreCountry                        : United States
AppleStoreAccountType                    : iTunes
PurchaseDate                             : 2012-03-03 12:05:53
Title/Sort                               : Once-ler's Traveling Madness (Original Demo)
Vendor                                   : Universal:isrc:USUM71201171
iTunMOVI                                 :  /  /  /  /   asset-info /    /     file-size /     3751076 /     flavor /     2:256 /    /  /
Audio
ID                                       : 1
Format                                   : AAC
Format/Info                              : Advanced Audio Codec
Format profile                           : LC
Codec ID                                 : 40
Duration                                 : 1mn 35s
Bit rate mode                            : Variable
Bit rate                                 : 256 Kbps
Maximum bit rate                         : 426 Kbps
Channel(s)                               : 2 channels
Channel positions                        : Front: L R
Sampling rate                            : 44.1 KHz
Compression mode                         : Lossy
Stream size                              : 3.03 MiB (85%)
Language                                 : English
Tagged date                              : UTC 2012-03-03 19:23:23
General
Complete name                            : D:\Sound\Music\Soundtracks\Lorax\VA - Dr. Seuss' The Lorax - OST (2012) [AAC]\10 I Love Nature (feat. The Lorax Si.m4a
Format                                   : MPEG-4
Format profile                           : Apple audio with iTunes info
Codec ID                                 : M4A
File size                                : 5.68 MiB
Duration                                 : 2mn 43s
Overall bit rate mode                    : Variable
Overall bit rate                         : 291 Kbps
Album                                    : Dr. Seuss' The Lorax (Original Songs from the Motion Picture)
Album/Performer                          : Various Artists
Part/Position                            : 1
Part/Total                               : 1
Track name                               : I Love Nature (feat. The Lorax Singers) [Original Demo]
Track name/Position                      : 10
Track name/Total                         : 13
Compilation                              : Yes
Performer                                : Randy Crenshaw
Composer                                 : John Powell & Cinco Paul
Genre                                    : Soundtrack
ContentType                              : Music
Recorded date                            : UTC 2012-02-28 08:00:00
Tagged date                              : UTC 2012-03-03 19:24:46
Copyright                                : ℗ 2012 Interscope Records
Service name                             : iTunes
Cover                                    : Yes
Comment                                  : (Original Demo)
Rating                                   : None
AppleStoreAccount                        : [url=mailto:[email protected]][email protected][/url]
AppleStoreCatalogID                      : 503605832
AlbumTitleID                             : 6864748
cmID                                     : 452269692
PlayListID                               : 503605706
GenreID                                  : 16
AppleStoreCountry                        : United States
AppleStoreAccountType                    : iTunes
PurchaseDate                             : 2012-03-03 12:05:53
Vendor                                   : Universal:isrc:USUM71201172
iTunMOVI                                 :  /  /  /  /   asset-info /    /     file-size /     5952169 /     flavor /     2:256 /    /  /
Audio
ID                                       : 1
Format                                   : AAC
Format/Info                              : Advanced Audio Codec
Format profile                           : LC
Codec ID                                 : 40
Duration                                 : 2mn 43s
Bit rate mode                            : Variable
Bit rate                                 : 256 Kbps
Maximum bit rate                         : 331 Kbps
Channel(s)                               : 2 channels
Channel positions                        : Front: L R
Sampling rate                            : 44.1 KHz
Compression mode                         : Lossy
Stream size                              : 5.12 MiB (90%)
Language                                 : English
Tagged date                              : UTC 2012-03-03 19:24:46
General
Complete name                            : D:\Sound\Music\Soundtracks\Lorax\VA - Dr. Seuss' The Lorax - OST (2012) [AAC]\11 You Need a Thneed (feat. Antonio.m4a
Format                                   : MPEG-4
Format profile                           : Apple audio with iTunes info
Codec ID                                 : M4A
File size                                : 3.40 MiB
Duration                                 : 1mn 32s
Overall bit rate mode                    : Variable
Overall bit rate                         : 310 Kbps
Album                                    : Dr. Seuss' The Lorax (Original Songs from the Motion Picture)
Album/Performer                          : Various Artists
Part/Position                            : 1
Part/Total                               : 1
Track name                               : You Need a Thneed (feat. Antonio Sol, Fletcher Sheridan & Taylor Graves)
Track name/Position                      : 11
Track name/Total                         : 13
Compilation                              : Yes
Performer                                : Keith Slettedahl & The 88
Composer                                 : John Powell & Cinco Paul
Genre                                    : Soundtrack
ContentType                              : Music
Recorded date                            : UTC 2012-02-28 08:00:00
Tagged date                              : UTC 2012-03-03 19:26:11
Copyright                                : ℗ 2012 Interscope Records
Service name                             : iTunes
Cover                                    : Yes
Rating                                   : None
AppleStoreAccount                        : [url=mailto:[email protected]][email protected][/url]
AppleStoreCatalogID                      : 503605833
AlbumTitleID                             : 283708045
cmID                                     : 452269692
PlayListID                               : 503605706
GenreID                                  : 16
AppleStoreCountry                        : United States
AppleStoreAccountType                    : iTunes
PurchaseDate                             : 2012-03-03 12:05:53
Vendor                                   : Universal:isrc:USUM71201173
iTunMOVI                                 :  /  /  /  /   asset-info /    /     file-size /     3567488 /     flavor /     2:256 /    /  /
Audio
ID                                       : 1
Format                                   : AAC
Format/Info                              : Advanced Audio Codec
Format profile                           : LC
Codec ID                                 : 40
Duration                                 : 1mn 32s
Bit rate mode                            : Variable
Bit rate                                 : 256 Kbps
Maximum bit rate                         : 337 Kbps
Channel(s)                               : 2 channels
Channel positions                        : Front: L R
Sampling rate                            : 44.1 KHz
Compression mode                         : Lossy
Stream size                              : 2.85 MiB (84%)
Language                                 : English
Tagged date                              : UTC 2012-03-03 19:26:11
General
Complete name                            : D:\Sound\Music\Soundtracks\Lorax\VA - Dr. Seuss' The Lorax - OST (2012) [AAC]\12 Nobody Needs a Thneed (feat. The.m4a
Format                                   : MPEG-4
Format profile                           : Apple audio with iTunes info
Codec ID                                 : M4A
File size                                : 4.05 MiB
Duration                                 : 1mn 52s
Overall bit rate mode                    : Variable
Overall bit rate                         : 302 Kbps
Album                                    : Dr. Seuss' The Lorax (Original Songs from the Motion Picture)
Album/Performer                          : Various Artists
Part/Position                            : 1
Part/Total                               : 1
Track name                               : Nobody Needs a Thneed (feat. The Lorax Singers) [Original Demo]
Track name/Position                      : 12
Track name/Total                         : 13
Compilation                              : Yes
Performer                                : Fletcher Sheridan & Randy Crenshaw
Composer                                 : John Powell & Cinco Paul
Genre                                    : Soundtrack
ContentType                              : Music
Recorded date                            : UTC 2012-02-28 08:00:00
Tagged date                              : UTC 2012-03-03 19:26:58
Copyright                                : ℗ 2012 Interscope Records
Service name                             : iTunes
Cover                                    : Yes
Comment                                  : (Original Demo)
Rating                                   : None
AppleStoreAccount                        : [url=mailto:[email protected]][email protected][/url]
AppleStoreCatalogID                      : 503605838
AlbumTitleID                             : 439665388
cmID                                     : 452269692
PlayListID                               : 503605706
GenreID                                  : 16
AppleStoreCountry                        : United States
AppleStoreAccountType                    : iTunes
PurchaseDate                             : 2012-03-03 12:05:53
Vendor                                   : Universal:isrc:USUM71201174
iTunMOVI                                 :  /  /  /  /   asset-info /    /     file-size /     4246946 /     flavor /     2:256 /    /  /
Audio
ID                                       : 1
Format                                   : AAC
Format/Info                              : Advanced Audio Codec
Format profile                           : LC
Codec ID                                 : 40
Duration                                 : 1mn 52s
Bit rate mode                            : Variable
Bit rate                                 : 256 Kbps
Maximum bit rate                         : 389 Kbps
Channel(s)                               : 2 channels
Channel positions                        : Front: L R
Sampling rate                            : 44.1 KHz
Compression mode                         : Lossy
Stream size                              : 3.50 MiB (86%)
Language                                 : English
Tagged date                              : UTC 2012-03-03 19:26:58
General
Complete name                            : D:\Sound\Music\Soundtracks\Lorax\VA - Dr. Seuss' The Lorax - OST (2012) [AAC]\13 Biggering (feat. The Lorax Singer.m4a
Format                                   : MPEG-4
Format profile                           : Apple audio with iTunes info
Codec ID                                 : M4A
File size                                : 10.0 MiB
Duration                                 : 5mn 1s
Overall bit rate mode                    : Variable
Overall bit rate                         : 279 Kbps
Album                                    : Dr. Seuss' The Lorax (Original Songs from the Motion Picture)
Album/Performer                          : Various Artists
Part/Position                            : 1
Part/Total                               : 1
Track name                               : Biggering (feat. The Lorax Singers) [Original Demo]
Track name/Position                      : 13
Track name/Total                         : 13
Compilation                              : Yes
Performer                                : Gabriel Mann, Randy Crenshaw & The 88
Composer                                 : John Powell & Cinco Paul
Genre                                    : Soundtrack
ContentType                              : Music
Recorded date                            : UTC 2012-02-28 08:00:00
Tagged date                              : UTC 2012-03-03 19:31:56
Copyright                                : ℗ 2012 Interscope Records
Service name                             : iTunes
Cover                                    : Yes
Comment                                  : (Original Demo)
Rating                                   : None
AppleStoreAccount                        : [url=mailto:[email protected]][email protected][/url]
AppleStoreCatalogID                      : 503605844
AlbumTitleID                             : 270876426
cmID                                     : 452269692
PlayListID                               : 503605706
GenreID                                  : 16
AppleStoreCountry                        : United States
AppleStoreAccountType                    : iTunes
PurchaseDate                             : 2012-03-03 12:05:53
Vendor                                   : Universal:isrc:USUM71201175
iTunMOVI                                 :  /  /  /  /   asset-info /    /     file-size /     10502964 /     flavor /     2:256 /    /  /
Audio
ID                                       : 1
Format                                   : AAC
Format/Info                              : Advanced Audio Codec
Format profile                           : LC
Codec ID                                 : 40
Duration                                 : 5mn 1s
Bit rate mode                            : Variable
Bit rate                                 : 256 Kbps
Maximum bit rate                         : 340 Kbps
Channel(s)                               : 2 channels
Channel positions                        : Front: L R
Sampling rate                            : 44.1 KHz
Compression mode                         : Lossy
Stream size                              : 9.43 MiB (94%)
Language                                 : English
Tagged date                              : UTC 2012-03-03 19:31:56
General
Complete name                            : D:\Sound\Music\Soundtracks\Lorax\VA - Dr. Seuss' The Lorax - OST (2012) [AAC]\Digital Booklet - Dr. Seuss' The Lor.pdf
File size                                : 8.29 MiB

Спектрограмма&#58;

Яндекс.Метрика
Рейтинг@Mail.ru