Профессионал / Le professionnel (1981) BDRip

 

Создавать темы 25-Июл-2014 13:39

-Профессионал / Le professionnel (1981) BDRip [H.264]- Год выпуска: 1981
Жанр: Драма, Триллер, Боевик
Описание фильма:
Убить президента африканской республики. Такое задание получил секретный агент Жослен Бомон. Внезапно политика изменилась, и французское правительство сдает героя африканским властям. Сбежав с каторги, волк-одиночка возвращается на родину с одной целью: довести задание до конца. А чернокожий лидер как раз приезжает во Францию.
Режиссер: Жорж Лотнер
Актеры: Жан-Поль Бельмондо, Жан Десайи, Сирил Клер, Мари-Кристин Декуар, Элизабет Маргони, Жан-Луи Ришар, Мишель Бон, Бернар-Пьер Доннадье
Продолжительность: 01:47:52
Качество видео: BDRip
Перевод: Дублированный
Дата мировой премьеры: 21.10.1981
Дата выхода DVD релиза: 16.12.10
Видеокодек: MPEG-4 AVC/H.264
Битрейт видео: ~1680 kb/s
Размер кадра: 872х522
Аудио: AC3, 48,0 kHz, 2 ch, 256 kb/s

MediaInfo

Общее
Уникальный идентификатор : 232298938813381537075494213850787463215 (0xAEC325F2779F3C528DB8F31AE82FC02F)
Полное имя : D:\cinema\Professional.1981.mkv
Формат : Matroska
Версия формата : Version 2
Размер файла : 1,46 Гбайт
Продолжительность : 1 ч. 47 м.
Общий поток : 1938 Кбит/сек
Название фильма : Профессионал / Le professionnel [1981 г.] | Рип L [R.G. 25 Кадр] | Unionpeer.org | валенки.где
Дата кодирования : UTC 2013-06-08 05:51:07
Программа кодирования : mkvmerge v3.2.0 ('Beginnings') built on Feb 12 2010 16:46:17
Библиотека кодирования : libebml v0.7.9 + libmatroska v0.8.1
Видео
Идентификатор : 1
Формат : AVC
Формат/Информация : Advanced Video Codec
Профиль формата : [url=mailto:[email protected]][email protected][/url]
Параметр CABAC формата : Да
Параметр ReFrames формата : 10 кадров
Идентификатор кодека : V_MPEG4/ISO/AVC
Продолжительность : 1 ч. 47 м.
Битрейт : 1680 Кбит/сек
Ширина : 872 пикселя
Высота : 522 пикселя
Соотношение сторон : 1,670
Режим частоты кадров : Постоянный
Частота кадров : 24,000 кадра/сек
Цветовое пространство : YUV
Субдискретизация насыщенности : 4:2:0
Битовая глубина : 8 бит
Тип развёртки : Прогрессивная
Бит/(Пиксели*Кадры) : 0.154
Размер потока : 1,24 Гбайт (85%)
Библиотека кодирования : x264 core 130 r2273 b3065e6
Настройки программы : cabac=1 / ref=10 / deblock=1:-2:-1 / analyse=0x3:0x133 / me=umh / subme=10 / psy=1 / psy_rd=0.95:0.05 / mixed_ref=1 / me_range=32 / chroma_me=1 / trellis=2 / 8x8dct=1 / cqm=0 / deadzone=21,11 / fast_pskip=0 / chroma_qp_offset=-4 / threads=6 / lookahead_threads=1 / sliced_threads=0 / nr=0 / decimate=1 / interlaced=0 / bluray_compat=0 / constrained_intra=0 / bframes=14 / b_pyramid=2 / b_adapt=2 / b_bias=0 / direct=3 / weightb=1 / open_gop=0 / weightp=2 / keyint=230 / keyint_min=21 / scenecut=40 / intra_refresh=0 / rc_lookahead=0 / rc=2pass / mbtree=0 / bitrate=1680 / ratetol=1.0 / qcomp=0.70 / qpmin=0 / qpmax=69 / qpstep=4 / cplxblur=20.0 / qblur=0.5 / vbv_maxrate=50000 / vbv_bufsize=62500 / nal_hrd=none / ip_ratio=1.35 / pb_ratio=1.25 / aq=2:0.90
Язык : English
Default : Нет
Forced : Нет
Аудио
Идентификатор : 2
Формат : AC-3
Формат/Информация : Audio Coding 3
Расширение режима : CM (complete main)
Параметр Endianness формата : Big
Идентификатор кодека : A_AC3
Продолжительность : 1 ч. 47 м.
Вид битрейта : Постоянный
Битрейт : 256 Кбит/сек
Каналы : 2 канала
Расположение каналов : Front: L R
Частота : 48,0 КГц
Битовая глубина : 16 бит
Метод сжатия : С потерями
Размер потока : 198 Мбайт (13%)
Заголовок : Дубляж
Язык : Russian
Default : Да
Forced : Нет
Меню
00:00:00.000 : en:00:00:00.000
00:12:39.958 : en:00:12:39.958
00:28:55.250 : en:00:28:55.250
00:41:54.625 : en:00:41:54.625
00:54:46.417 : en:00:54:46.417
01:06:59.000 : en:01:06:59.000
01:21:16.667 : en:01:21:16.667
01:33:52.500 : en:01:33:52.500

Скриншоты:

Яндекс.Метрика
Рейтинг@Mail.ru