Моя рыбалка (74 серии) WEBRip

 

Создавать темы 24-Июл-2014 04:29

-Моя рыбалка (74 серии).- Режиссер / Телекомпания: Сергей Апрелов
Год выпуска: 2012-2013
Жанр: Документальный, Видовой, Спорт
Описание: Среди рыболовов-спортсменов имя Сергея Апрелова известно уже много лет. Его называют «телевизионным гуру» рыбаков. Отправляясь в очередное «рыболовное путешествие» съемочная группа вместе с снастями для поимки рыбы укладывает телевизионную аппаратуру и все сопутствующие аксессуары.
В программе «Моя рыбалка с Сергеем Апреловым»(название на канале "Охотник и Рыболов", на канале "Россия 2" просто "Моя рыбалка") каждый рыболов найдет свое рыболовное путешествие или соревнование, с трофеями, песнями у костра и вкусной ухой!

Участники: РЫБАКИ
Продолжительность: 74 х ~ 00:13:00
Видеокодек: Xvid
Битрейт видео: ~1601 kb/s
Размер кадра: 720 x 400
Качество видео: WEBRip
Аудиокодек: MP3, 2ch
Битрейт аудио: 128 kb/s

Содержание

001. WorldFish 1.
002. WorldFish 2.
003. WorldFish 3.
004. WorldFish 4.
005. WorldFish 5.
006. WorldFish 6.
007. Анатолий Полотно в Якутии 1.
008. Анатолий Полотно в Якутии 2.
009. Архив главного редактора 1.
010. Архив главного редактора 2.
011. Архив главного редактора 3.
012. Архив главного редактора 4.
013. Архив главного редактора 5.
014. База ''Московская'' 1.
015. База ''Московская'' 2.
016. База ''Московская'' 3.
017. База ''Московская'' 4.
018. База ''Московская''. Дети.
019. Барыбино.
020. В глухозимье на Можайском и Яузском водохранилищах 1.
021. В глухозимье на Можайском и Яузском водохранилищах 2.
022. Весна под Волгоградом 2.
023. Весна под Волгоградом.
024. Вращающаяся блесна.
025. Графский пруд.
026. Детские соревнования в Марьино.
027. Джиг пари 1.
028. Джиг пари 2.
029. Зимой на кольском полуострове.
030. Золотой сазан 1.
031. Золотой сазан 2.
032. Караси.
033. Кипр 2012. Часть 1.
034. Кипр 2012. Часть 2.
035. Кипр 2012. Часть 3.
036. Кубок Москвы по карпфишингу 1.
037. Кубок Москвы по карпфишингу 2.
038. Куранах-Сиктях. Часть 1.
039. Куранах-Сиктях. Часть 2.
040. Куранах-Сиктях. Часть 3.
041. Лига профессиональных рыболовов 1.
042. Лига профессиональных рыболовов 2.
043. Лига профессиональных рыболовов 3.
044. Лига профессиональных рыболовов 4.
045. Лига профессиональных рыболовов 5.
046. Лига профессиональных рыболовов 6.
047. Марлин.
048. Народная рыбалка 5.
049. Народная рыбалка 6.
050. Народная рыбалка 7.
051. Народная рыбалка 8.
052. Народная рыбалка. Самара 1.
053. Народная рыбалка. Самара 2.
054. Ночной судак 1.
055. Ночной судак 2.
056. Осенняя щука.
057. Руза.
058. Рыбалка и страусы.
059. Сахалин.
060. Соревнования по-японски.
061. Улово 1.
062. Улово 2.
063. Фестиваль ''Народная рыбалка'' 1.
064. Фестиваль ''Народная рыбалка'' 2.
065. Фидер и поплавок 2012. Часть 1.
066. Фидер и поплавок 2012. Часть 2.
067. Фидер на Москве-реке 2.
068. Фидер на Москве-реке.
069. Форель весной 1.
070. Форель весной 2.
071. Чебоксары.
072. Щуки атакуют.
073. Щуки Чебоксарского вдхр. Часть 1.
074. Щуки Чебоксарского вдхр. Часть 2.

MediaInfo

Общее
Полное имя : D:\14 янв\Моя рыбалка\Анатолий Полотно в Якутии 1.avi
Формат : AVI
Формат/Информация : Audio Video Interleave
Размер файла : 162 Мбайт
Продолжительность : 12 м.
Общий поток : 1739 Кбит/сек
Программа кодирования : VirtualDubMod 1.5.10.3 | www.virtualdub-fr.org || (build 2550/release)
Библиотека кодирования : VirtualDubMod build 2550/release
Видео
Идентификатор : 0
Формат : MPEG-4 Visual
Профиль формата : Advanced [email protected]
Параметр BVOP формата : 1
Параметр QPel формата : Нет
Параметр GMC формата : Без точки перехода
Параметр матрицы формата : Default (MPEG)
Идентификатор кодека : XVID
Идентификатор кодека/Подсказка : XviD
Продолжительность : 12 м.
Битрейт : 1601 Кбит/сек
Ширина : 720 пикселей
Высота : 400 пикселей
Соотношение сторон : 16:9
Частота кадров : 25,000 кадров/сек
Цветовое пространство : YUV
Субдискретизация насыщенности : 4:2:0
Битовая глубина : 8 бит
Тип развёртки : Прогрессивная
Метод сжатия : С потерями
Бит/(Пиксели*Кадры) : 0.222
Размер потока : 149 Мбайт (92%)
Библиотека кодирования : XviD 1.2.1 (UTC 2008-12-04)
Аудио
Идентификатор : 1
Формат : MPEG Audio
Версия формата : Version 1
Профиль формата : Layer 3
Идентификатор кодека : 55
Идентификатор кодека/Подсказка : MP3
Продолжительность : 12 м.
Вид битрейта : Постоянный
Битрейт : 128 Кбит/сек
Каналы : 2 канала
Частота : 48,0 КГц
Метод сжатия : С потерями
Размер потока : 11,9 Мбайт (7%)
Выравнивание : Соединение по промежуткам
Продолжительность промежутка : 40 мс. (1,00 видеокадр)
Время предзагрузки промежутка : 504 мс.
Библиотека кодирования : LAME3.99r
Настройки программы : -m s -V 4 -q 2 -lowpass 17 -b 128
Яндекс.Метрика
Рейтинг@Mail.ru