(Instrumental, Guitar) ДиДюЛя - Grand Collection - 2006, FLAC (image+.cue), lossless

 

Создавать темы 23-Июл-2014 20:34

ДиДюЛя - Grand Collection- Жанр: Instrumental, Guitar
Год выпуска диска: 2006
Производитель диска: Россия
Аудио кодек: FLAC
Тип рипа: image+.cue
Битрейт аудио: lossless
Продолжительность: 01:19:20
Трэклист:
1. Винил
2. Поезд в Барселону
3. День
4. Сатиновые берега (ДиДюЛя, Д.Маликов)
5. Ветер
6. Легенда
7. Русская
8. Бездна
9. Испания
10. Гром
11. Ритмо
12. Пещерный город Инкерман
13. Фламенко
14. День рождения
15. Жасмин
16. Лейла (ДиДюЛя, А.Руссо)
17. Дорога в Багдад
18. Arabica
19. Посвящение
Доп. информация:

Отчёт EAC

Exact Audio Copy V0.99 prebeta 4 from 23. January 2008
Отчёт EAC об извлечении, выполненном 7. декабря 2008, 13:30
ДиДюЛя / Grand Collection
Дисковод: Optiarc DVD RW AD-7173A   Adapter: 1  ID: 0
Режим чтения                 : Достоверность
Использование точного потока : Да
Отключение кэша аудио        : Да
Использование указателей C2  : Нет
Коррекция смещения при чтении                     : 48
Способность читать области Lead-in и Lead-out     : Нет
Заполнение пропущенных сэмплов тишиной            : Да
Удаление блоков с тишиной в начале и конце        : Нет
При вычислениях CRC использовались нулевые сэмплы : Да
Интерфейс                                         : Установленный внешний ASPI-интерфейс
Выходной формат : Внутренние WAV-операции
Формат сэмплов  : 44.100 Гц; 16 бит; стерео
TOC извлечённого CD
     Трек |   Старт  | Длительность | Начальный сектор | Конечный сектор
    ---------------------------------------------------------------------
       1  |  0:00.00 |    5:58.67   |           0      |      26916
       2  |  5:58.67 |    3:54.33   |       26917      |      44499
       3  |  9:53.25 |    6:52.40   |       44500      |      75439
       4  | 16:45.65 |    4:24.14   |       75440      |      95253
       5  | 21:10.04 |    3:45.50   |       95254      |     112178
       6  | 24:55.54 |    3:18.64   |      112179      |     127092
       7  | 28:14.43 |    4:34.45   |      127093      |     147687
       8  | 32:49.13 |    3:30.31   |      147688      |     163468
       9  | 36:19.44 |    2:52.35   |      163469      |     176403
      10  | 39:12.04 |    3:42.32   |      176404      |     193085
      11  | 42:54.36 |    4:44.44   |      193086      |     214429
      12  | 47:39.05 |    3:21.27   |      214430      |     229531
      13  | 51:00.32 |    2:45.29   |      229532      |     241935
      14  | 53:45.61 |    4:09.02   |      241936      |     260612
      15  | 57:54.63 |    3:30.32   |      260613      |     276394
      16  | 61:25.20 |    4:33.55   |      276395      |     296924
      17  | 65:59.00 |    5:21.44   |      296925      |     321043
      18  | 71:20.44 |    5:35.36   |      321044      |     346204
      19  | 76:56.05 |    2:23.49   |      346205      |     356978
Характеристики диапазона извлечения и сообщения об ошибках
Выбранный диапазон
     Имя файла D:\ДиДюЛя - Grand Collection\ДиДюЛя - Grand Collection.wav
     Пиковый уровень 98.7 %
     Качество диапазона 99.9 %
     CRC копии B00369F1
     Копирование... OK
Ошибок не произошло
Конец отчёта
Яндекс.Метрика
Рейтинг@Mail.ru