Дивергент / Divergent (2014) WEB-DL [H.264/1080p-LQ]

 

Создавать темы 23-Июл-2014 08:01

-Дивергент / Divergent (2014) WEB-DL- Год выпуска: 2014
Производство: США / Red Wagon Productions, Summit Entertainment
Жанр: Фантастика, мелодрама, приключения-Режиссер: Нил Бёргер / Neil Burger
Продюсер: Люси Фишер, Пуйа Шабазиан, Дуглас Уик
Актеры: Шейлин Вудли, Кейт Уинслет, Майлз Теллер, Тео Джеймс, Рэй Стивенсон, Эшли Джадд, Мэгги Кью, Джай Кортни, Зои Кравиц, Энсел Эльгорт-Описание фильма:
Действие развивается на Земле в будущем, в деспотичном Чикаго. Все подростки, достигшие 16 лет, обязаны выбрать одну из пяти фракций и присоединиться к ней на всю оставшуюся жизнь. Каждая фракция представляет определенное качество: Искренность, Отречение, Бесстрашие, Дружелюбие и Эрудиция.-Язык: Русский, английский
Перевод: Дублированный (iTunes)
Субтитры: Вшитые отключаемые
Язык субтитров: Русский, английский (full, SDH)- -Дата мировой премьеры: 18 марта 2014
Дата российской премьеры: 10 апреля 2014, «Централ Партнершип»
Дата выхода DVD/Blu-Ray релиза: 19 августа 2014, «Lizard Cinema Trade»
-Рейтинг MPAA: PG-13
Возраст: 12+-Продолжительность: 02:13:56
Качество видео: WEB-DL-Видео: MPEG-4 AVC/H.264, 1920x1080 (16:9), ~4904 kbps, 0.095 bit/pixel, 25 fps
Аудио »1: AC3 5.1, 384 kbps, 48 KHz, 16-bit (Русский) / Дубляж
Аудио »2: AC3 5.1, 384 kbps, 48 KHz, 16-bit (Английский) / Оригинал-

MediaInfo:

Формат : Matroska
Версия формата : Version 2
Размер файла : 5,41 Гбайт
Продолжительность : 2 ч. 13 м.
Общий поток : 5788 Кбит/сек
Дата кодирования : UTC 2014-07-23 02:20:39
Программа кодирования : mkvmerge v6.4.1 ('Omega Point') built on Sep 16 2013 22:05:10
Библиотека кодирования : libebml v1.3.0 + libmatroska v1.4.1
Видео
Идентификатор : 1
Формат : AVC
Формат/Информация : Advanced Video Codec
Профиль формата : [url=mailto:[email protected]][email protected][/url]
Параметр CABAC формата : Да
Параметр ReFrames формата : 4 кадра
Идентификатор кодека : V_MPEG4/ISO/AVC
Продолжительность : 2 ч. 13 м.
Битрейт : 4904 Кбит/сек
Ширина : 1920 пикселей
Высота : 1080 пикселей
Соотношение сторон : 16:9
Режим частоты кадров : Постоянный
Частота кадров : 25,000 кадров/сек
Цветовое пространство : YUV
Субдискретизация насыщенности : 4:2:0
Битовая глубина : 8 бит
Тип развёртки : Прогрессивная
Бит/(Пиксели*Кадры) : 0.095
Размер потока : 4,59 Гбайт (85%)
Язык : English
Default : Да
Forced : Нет
Основные цвета : BT.709
Характеристики трансфера : BT.709
Коэффициенты матрицы : BT.709
Аудио #1
Идентификатор : 2
Формат : AC-3
Формат/Информация : Audio Coding 3
Расширение режима : CM (complete main)
Параметр Endianness формата : Big
Идентификатор кодека : A_AC3
Продолжительность : 2 ч. 13 м.
Вид битрейта : Постоянный
Битрейт : 384 Кбит/сек
Каналы : 6 каналов
Расположение каналов : Front: L C R, Side: L R, LFE
Частота : 48,0 КГц
Битовая глубина : 16 бит
Метод сжатия : С потерями
Размер потока : 368 Мбайт (7%)
Заголовок : AC3
Язык : Russian
Default : Да
Forced : Нет
Аудио #2
Идентификатор : 3
Формат : AC-3
Формат/Информация : Audio Coding 3
Расширение режима : CM (complete main)
Параметр Endianness формата : Big
Идентификатор кодека : A_AC3
Продолжительность : 2 ч. 13 м.
Вид битрейта : Постоянный
Битрейт : 384 Кбит/сек
Каналы : 6 каналов
Расположение каналов : Front: L C R, Side: L R, LFE
Частота : 48,0 КГц
Битовая глубина : 16 бит
Метод сжатия : С потерями
Размер потока : 368 Мбайт (7%)
Заголовок : AC3
Язык : English
Default : Нет
Forced : Нет
Текст #1
Идентификатор : 4
Формат : UTF-8
Идентификатор кодека : S_TEXT/UTF8
Идентификатор кодека/Информация : UTF-8 Plain Text
Заголовок : Full (notabenoid)
Язык : Russian
Default : Нет
Forced : Нет
Текст #2
Идентификатор : 5
Формат : UTF-8
Идентификатор кодека : S_TEXT/UTF8
Идентификатор кодека/Информация : UTF-8 Plain Text
Заголовок : Full
Язык : English
Default : Нет
Forced : Нет
Текст #3
Идентификатор : 6
Формат : UTF-8
Идентификатор кодека : S_TEXT/UTF8
Идентификатор кодека/Информация : UTF-8 Plain Text
Заголовок : SDH
Язык : English
Default : Нет
Forced : Нет
Меню
00:00:00.000 : en:Глава 1
00:07:13.000 : en:Глава 2
00:12:11.000 : en:Глава 3
00:17:35.000 : en:Глава 4
00:22:33.000 : en:Глава 5
00:29:06.000 : en:Глава 6
00:33:58.000 : en:Глава 7
00:39:25.000 : en:Глава 8
00:43:45.000 : en:Глава 9
00:49:38.000 : en:Глава 10
00:54:40.000 : en:Глава 11
00:59:37.000 : en:Глава 12
01:03:48.000 : en:Глава 13
01:10:19.000 : en:Глава 14
01:14:42.000 : en:Глава 15
01:20:07.000 : en:Глава 16
01:25:03.000 : en:Глава 17
01:32:05.000 : en:Глава 18
01:38:01.000 : en:Глава 19
01:43:31.000 : en:Глава 20
01:49:30.000 : en:Глава 21
01:53:59.000 : en:Глава 22
01:58:26.000 : en:Глава 23
02:03:56.000 : en:Глава 24

Скриншоты

Яндекс.Метрика
Рейтинг@Mail.ru