(Reggae, Rock, Funk) Supermax - The Best Of [3CD] (2014) FLAC (image+.cue), Lossless

 

Создавать темы 22-Июл-2014 21:13

Supermax - The Best Of [3CD]- Год: 2014
Жанр: Reggae, Rock, Funk
Страна: Austria
Продолжительность: 03:56:26
Формат/Кодек: FLAC
Тип рипа: image+.cue
Битрейт аудио: Lossless

Треклист

CD1
01. Dance Dance Dance
02. Push Push (Sexy Chocolate Girl)
03. Watch Out South Africa, Here We Come
04. Don`t Stop The Music
05. Supermax
06. Nobody Knows
07. Reggae On Baby
08. I Am What I Am
09. World Of Today
10. Lovemachine
11. Musicexpress
12. Camillo
13. Be What You Are
14. I Wanna Be Free
15. Hollywood
16. In The Middle Of The Night
17. Ganja Generation
18. Lovemachine '93

Отчёт EAC CD1

Exact Audio Copy V1.0 beta 3 from 29. August 2011
Отчёт EAC об извлечении, выполненном 16. июля 2014, 10:12
Supermax / The Best Of (CD1)
Дисковод: HL-DT-STDVDRAM GH20NS10 Adapter: 2 ID: 1
Режим чтения : Достоверность
Использование точного потока : Да
Отключение кэша аудио : Да
Использование указателей C2 : Нет
Коррекция смещения при чтении : 667
Способность читать области Lead-in и Lead-out : Нет
Заполнение пропущенных сэмплов тишиной : Да
Удаление блоков с тишиной в начале и конце : Нет
При вычислениях CRC использовались нулевые сэмплы : Да
Интерфейс : Встроенный Win32-интерфейс для Win NT/2000
Выходной формат : Внутренние WAV-операции
Формат сэмплов : 44.100 Гц; 16 бит; стерео
TOC извлечённого CD
Трек | Старт | Длительность | Начальный сектор | Конечный сектор
---------------------------------------------------------------------
1 | 0:00.00 | 3:45.20 | 0 | 16894
2 | 3:45.20 | 3:06.52 | 16895 | 30896
3 | 6:51.72 | 3:57.64 | 30897 | 48735
4 | 10:49.61 | 6:02.39 | 48736 | 75924
5 | 16:52.25 | 3:58.20 | 75925 | 93794
6 | 20:50.45 | 3:39.12 | 93795 | 110231
7 | 24:29.57 | 3:53.45 | 110232 | 127751
8 | 28:23.27 | 2:26.05 | 127752 | 138706
9 | 30:49.32 | 4:26.69 | 138707 | 158725
10 | 35:16.26 | 8:38.18 | 158726 | 197593
11 | 43:54.44 | 3:43.20 | 197594 | 214338
12 | 47:37.64 | 3:19.09 | 214339 | 229272
13 | 50:56.73 | 2:57.22 | 229273 | 242569
14 | 53:54.20 | 7:17.73 | 242570 | 275417
15 | 61:12.18 | 4:02.09 | 275418 | 293576
16 | 65:14.27 | 4:05.03 | 293577 | 311954
17 | 69:19.30 | 4:01.18 | 311955 | 330047
18 | 73:20.48 | 6:33.30 | 330048 | 359552
Характеристики диапазона извлечения и сообщения об ошибках
Выбранный диапазон
Имя файла F:\ЕАС\kulick\Supermax - The Best Of (CD1).wav
Пиковый уровень 100.0 %
Скорость извлечения 8.1 X
Качество диапазона 100.0 %
CRC теста 1B40B2C1
CRC копии 1B40B2C1
Копирование... OK
Ошибок не произошло
AccurateRip: сводка
Трек 1 : извлечено точно (доверие 1) [E5438729] (AR v2)
Трек 2 : извлечено точно (доверие 1) [8E2EC914] (AR v2)
Трек 3 : извлечено точно (доверие 1) [0237308F] (AR v2)
Трек 4 : извлечено точно (доверие 1) [4CDD89F1] (AR v2)
Трек 5 : извлечено точно (доверие 1) [932DE9E8] (AR v2)
Трек 6 : извлечено точно (доверие 1) [2B2A80B5] (AR v2)
Трек 7 : извлечено точно (доверие 1) [F7CF8CBA] (AR v2)
Трек 8 : извлечено точно (доверие 1) [1B4F368D] (AR v2)
Трек 9 : извлечено точно (доверие 1) [18475B90] (AR v2)
Трек 10 : извлечено точно (доверие 1) [2649946D] (AR v2)
Трек 11 : извлечено точно (доверие 1) [2EA71D87] (AR v2)
Трек 12 : извлечено точно (доверие 1) [4F074132] (AR v2)
Трек 13 : извлечено точно (доверие 1) [37E0B1C1] (AR v2)
Трек 14 : извлечено точно (доверие 1) [7D54CBAD] (AR v2)
Трек 15 : извлечено точно (доверие 1) [12C9105A] (AR v2)
Трек 16 : извлечено точно (доверие 1) [F0484365] (AR v2)
Трек 17 : извлечено точно (доверие 1) [6305BA5B] (AR v2)
Трек 18 : извлечено точно (доверие 1) [079A3B8A] (AR v2)
Все треки извлечены точно
Конец отчёта
---- CUETools DB Plugin V2.1.5
[CTDB TOCID: aoD3JvF9uf0iHQOWJJ66iyJ5OTk-] found
Submit result: already submitted
Track | CTDB Status
1 | (1/1) Accurately ripped
2 | (1/1) Accurately ripped
3 | (1/1) Accurately ripped
4 | (1/1) Accurately ripped
5 | (1/1) Accurately ripped
6 | (1/1) Accurately ripped
7 | (1/1) Accurately ripped
8 | (1/1) Accurately ripped
9 | (1/1) Accurately ripped
10 | (1/1) Accurately ripped
11 | (1/1) Accurately ripped
12 | (1/1) Accurately ripped
13 | (1/1) Accurately ripped
14 | (1/1) Accurately ripped
15 | (1/1) Accurately ripped
16 | (1/1) Accurately ripped
17 | (1/1) Accurately ripped
18 | (1/1) Accurately ripped
==== Контрольная сумма отчёта 7FF520E1B631224E1771D6E3ED886E6E9D59E463DCEF67BD7862C0A44916C8AC ====
CD2
01. African Blood
02. Fly With Me
03. It Ain't Easy
04. Reggae Fever
05. It's A Long Way To Reach Heaven
06. Loversnight
07. Love Is Deeper
08. Coconut Reggae
09. Tonight
10. Today I Fall In Love Again
11. Aya Jah Jah
12. Sunshine People
13. Living In A World
14. Going Back Home
15. I Want You
16. Something In My Heart
17. Dreadlock Generation

Отчёт EAC CD2

Exact Audio Copy V1.0 beta 3 from 29. August 2011
Отчёт EAC об извлечении, выполненном 19. июля 2014, 10:11
Supermax / The Best Of (CD2)
Дисковод: HL-DT-STDVDRAM GH20NS10 Adapter: 2 ID: 1
Режим чтения : Достоверность
Использование точного потока : Да
Отключение кэша аудио : Да
Использование указателей C2 : Нет
Коррекция смещения при чтении : 667
Способность читать области Lead-in и Lead-out : Нет
Заполнение пропущенных сэмплов тишиной : Да
Удаление блоков с тишиной в начале и конце : Нет
При вычислениях CRC использовались нулевые сэмплы : Да
Интерфейс : Встроенный Win32-интерфейс для Win NT/2000
Выходной формат : Внутренние WAV-операции
Формат сэмплов : 44.100 Гц; 16 бит; стерео
TOC извлечённого CD
Трек | Старт | Длительность | Начальный сектор | Конечный сектор
---------------------------------------------------------------------
1 | 0:00.00 | 8:37.65 | 0 | 38839
2 | 8:37.65 | 4:02.08 | 38840 | 56997
3 | 12:39.73 | 5:37.54 | 56998 | 82326
4 | 18:17.52 | 3:38.70 | 82327 | 98746
5 | 21:56.47 | 4:18.51 | 98747 | 118147
6 | 26:15.23 | 5:48.20 | 118148 | 144267
7 | 32:03.43 | 3:51.34 | 144268 | 161626
8 | 35:55.02 | 3:46.17 | 161627 | 178593
9 | 39:41.19 | 4:10.21 | 178594 | 197364
10 | 43:51.40 | 2:53.37 | 197365 | 210376
11 | 46:45.02 | 4:23.62 | 210377 | 230163
12 | 51:08.64 | 3:04.56 | 230164 | 244019
13 | 54:13.45 | 6:07.73 | 244020 | 271617
14 | 60:21.43 | 5:03.22 | 271618 | 294364
15 | 65:24.65 | 4:35.39 | 294365 | 315028
16 | 70:00.29 | 4:31.22 | 315029 | 335375
17 | 74:31.51 | 4:58.36 | 335376 | 357761
Характеристики диапазона извлечения и сообщения об ошибках
Выбранный диапазон
Имя файла F:\ЕАС\kulick\Supermax - The Best Of (CD2).wav
Пиковый уровень 100.0 %
Скорость извлечения 8.1 X
Качество диапазона 99.9 %
CRC теста 9FF025B5
CRC копии 9FF025B5
Копирование... OK
Ошибок не произошло
AccurateRip: сводка
Трек 1 : извлечено точно (доверие 1) [3E2D81D5] (AR v2)
Трек 2 : извлечено точно (доверие 1) [D673A33B] (AR v2)
Трек 3 : извлечено точно (доверие 1) [BD04F642] (AR v2)
Трек 4 : извлечено точно (доверие 1) [784A9AEF] (AR v2)
Трек 5 : извлечено точно (доверие 1) [DF22A8DE] (AR v2)
Трек 6 : извлечено точно (доверие 1) [BB86E128] (AR v2)
Трек 7 : извлечено точно (доверие 1) [8DDA57A4] (AR v2)
Трек 8 : извлечено точно (доверие 1) [A1C43469] (AR v2)
Трек 9 : извлечено точно (доверие 1) [15AEA206] (AR v2)
Трек 10 : извлечено точно (доверие 1) [0559156C] (AR v2)
Трек 11 : извлечено точно (доверие 1) [88ACA513] (AR v2)
Трек 12 : извлечено точно (доверие 1) [584ED09C] (AR v2)
Трек 13 : извлечено точно (доверие 1) [5483409C] (AR v2)
Трек 14 : извлечено точно (доверие 1) [FD3040C0] (AR v2)
Трек 15 : извлечено точно (доверие 1) [A554D686] (AR v2)
Трек 16 : извлечено точно (доверие 1) [3FFCDCE0] (AR v2)
Трек 17 : извлечено точно (доверие 1) [69BA75C2] (AR v2)
Все треки извлечены точно
Конец отчёта
---- CUETools DB Plugin V2.1.5
[CTDB TOCID: OYvifui4swGg8OrMbeqpWa9dNg0-] found
Submit result: already submitted
Track | CTDB Status
1 | (1/1) Accurately ripped
2 | (1/1) Accurately ripped
3 | (1/1) Accurately ripped
4 | (1/1) Accurately ripped
5 | (1/1) Accurately ripped
6 | (1/1) Accurately ripped
7 | (1/1) Accurately ripped
8 | (1/1) Accurately ripped
9 | (1/1) Accurately ripped
10 | (1/1) Accurately ripped
11 | (1/1) Accurately ripped
12 | (1/1) Accurately ripped
13 | (1/1) Accurately ripped
14 | (1/1) Accurately ripped
15 | (1/1) Accurately ripped
16 | (1/1) Accurately ripped
17 | (1/1) Accurately ripped
==== Контрольная сумма отчёта 366E2F8D47BD027B6EEAFF3CFD97465BB688B61B41225E63013B89EB405FDEF1 ====
CD3
01. World Of Tomorrow
02. Got To Love
03. Executor (Part I + II)
04. Interplanetary Days
05. Jungle And The Beat
06. Nightgroove (Long Version)
07. Justice (For The Flowers And The Trees)
08. So I
09. Honkey Curt
10. Reggaesizer
11. Warriors
12. Good Times
13. Shine On Me
14. Bango Bongo

Отчёт EAC CD3

Exact Audio Copy V1.0 beta 3 from 29. August 2011
Отчёт EAC об извлечении, выполненном 20. июля 2014, 9:55
Supermax / The Best Of (CD3)
Дисковод: HL-DT-STDVDRAM GH20NS10 Adapter: 2 ID: 1
Режим чтения : Достоверность
Использование точного потока : Да
Отключение кэша аудио : Да
Использование указателей C2 : Нет
Коррекция смещения при чтении : 667
Способность читать области Lead-in и Lead-out : Нет
Заполнение пропущенных сэмплов тишиной : Да
Удаление блоков с тишиной в начале и конце : Нет
При вычислениях CRC использовались нулевые сэмплы : Да
Интерфейс : Встроенный Win32-интерфейс для Win NT/2000
Выходной формат : Внутренние WAV-операции
Формат сэмплов : 44.100 Гц; 16 бит; стерео
TOC извлечённого CD
Трек | Старт | Длительность | Начальный сектор | Конечный сектор
---------------------------------------------------------------------
1 | 0:00.00 | 5:01.42 | 0 | 22616
2 | 5:01.42 | 3:55.38 | 22617 | 40279
3 | 8:57.05 | 9:02.55 | 40280 | 80984
4 | 17:59.60 | 6:06.30 | 80985 | 108464
5 | 24:06.15 | 6:47.52 | 108465 | 139041
6 | 30:53.67 | 5:49.60 | 139042 | 165276
7 | 36:43.52 | 6:24.33 | 165277 | 194109
8 | 43:08.10 | 4:20.50 | 194110 | 213659
9 | 47:28.60 | 5:31.00 | 213660 | 238484
10 | 52:59.60 | 5:09.00 | 238485 | 261659
11 | 58:08.60 | 4:26.12 | 261660 | 281621
12 | 62:34.72 | 4:45.38 | 281622 | 303034
13 | 67:20.35 | 3:55.12 | 303035 | 320671
14 | 71:15.47 | 5:46.35 | 320672 | 346656
Характеристики диапазона извлечения и сообщения об ошибках
Выбранный диапазон
Имя файла F:\ЕАС\kulick\Supermax - The Best Of (CD3).wav
Пиковый уровень 100.0 %
Скорость извлечения 8.0 X
Качество диапазона 99.9 %
CRC теста 77347AD1
CRC копии 77347AD1
Копирование... OK
Ошибок не произошло
AccurateRip: сводка
Трек 1 : извлечено точно (доверие 1) [1C0D6B4A] (AR v2)
Трек 2 : извлечено точно (доверие 1) [3DB45CDA] (AR v2)
Трек 3 : извлечено точно (доверие 1) [E3FB79FC] (AR v2)
Трек 4 : извлечено точно (доверие 1) [38C46E55] (AR v2)
Трек 5 : извлечено точно (доверие 1) [32C2C4FF] (AR v2)
Трек 6 : извлечено точно (доверие 1) [1E6CE292] (AR v2)
Трек 7 : извлечено точно (доверие 1) [E91B87F9] (AR v2)
Трек 8 : извлечено точно (доверие 1) [03ACC6CC] (AR v2)
Трек 9 : извлечено точно (доверие 1) [882AFA5F] (AR v2)
Трек 10 : извлечено точно (доверие 1) [09407B77] (AR v2)
Трек 11 : извлечено точно (доверие 1) [A92E0EBC] (AR v2)
Трек 12 : извлечено точно (доверие 1) [A1979019] (AR v2)
Трек 13 : извлечено точно (доверие 1) [4D43D1CD] (AR v2)
Трек 14 : извлечено точно (доверие 1) [35CE56E2] (AR v2)
Все треки извлечены точно
Конец отчёта
---- CUETools DB Plugin V2.1.5
[CTDB TOCID: anb4woQlLbft1WtEhmQCDmPqnEg-] found
Submit result: already submitted
Track | CTDB Status
1 | (1/1) Accurately ripped
2 | (1/1) Accurately ripped
3 | (1/1) Accurately ripped
4 | (1/1) Accurately ripped
5 | (1/1) Accurately ripped
6 | (1/1) Accurately ripped
7 | (1/1) Accurately ripped
8 | (1/1) Accurately ripped
9 | (1/1) Accurately ripped
10 | (1/1) Accurately ripped
11 | (1/1) Accurately ripped
12 | (1/1) Accurately ripped
13 | (1/1) Accurately ripped
14 | (1/1) Accurately ripped
==== Контрольная сумма отчёта 2F7B479E8EBD84078C35F0E0149BBAE21A075D696A7981E88BE3F2161D4EFB9F ====
Дополнительная информация: Unofficial Edition

Создавать темы 01-Ноя-2014 23:37 (спустя 3 месяца 10 дней)

Вот бы в МР3 ещё б....
MICROSOFT LifeChat

Создавать темы 02-Ноя-2014 14:45 (спустя 15 часов)

Oleg_061, Supermax - The Best Of [3CD] (2014) MP3.
Яндекс.Метрика
Рейтинг@Mail.ru