Саботаж / Sabotage (2014) HDRip [H.264]

 

Создавать темы 22-Июл-2014 16:49

-Саботаж / Sabotage (2014) HDRip
«Неудержимые снова в деле»
- Год выпуска: 2014
Производство: США, 5150 Action, Albert S. Ruddy Productions, Crave Films, DEA Productions, Open Road Films, QED International, Roth Films
Жанр: Боевик, Триллер, Драма
Режиссер: Дэвид Эйр
Продюсер: Дэвид Эйр, Билл Блок, Пол Хэнсон
Актеры: Арнольд Шварценеггер, Терренс Ховард, Сэм Уортингтон, Макс Мартини, Оливия Уильямс, Мартин Донован, Мирей Инос, Кевин Вэнс, Джо Манганьелло, Джош Холлоуэй
Описание фильма:
История начинается с операции элитного подразделения из управления по борьбе с наркотиками, нагрянувшего на явочную квартиру наркокартеля. Команда решает скрыть от начальства, что в результате налёта они обогатились на миллионы долларов, но вскоре хранить тайну становится всё сложнее: кто-то по одному убирает всех участвовавших в операции.
Перевод: Дублированный [iTunes]
Субтитры: Вшитые отключаемые
Язык субтитров: Русские (полные), английские (форсированные на иностранную речь) неотключаемые

Дата мировой премьеры: 19 марта 2014
Дата российской премьеры: 17 апреля 2014, «Централ Партнершип»
Дата выхода DVD релиза: 29 июля 2014, «Lizard Cinema Trade»
Продолжительность: 01:49:41
Качество видео: HDRip
Видеокодек: MPEG-4 AVC/H.264
Битрейт видео: ~2507 Kbps
Размер кадра: 1024x554
Аудио #1: Русский: AC3, 48.0 KHz, 6 ch, 384 Kbps
Аудио #2: Английский: AC3, 48.0 KHz, 6 ch, 384 Kbps

MediaInfo:

General
Unique ID                                : 210213686715498258183059231518667273183 (0x9E25AEF313641B00AF95BF204D6773DF)
Complete name                            : E:\Фильмы\Саботаж.2014.HDRip.mkv
Format                                   : Matroska
Format version                           : Version 2
File size                                : 2.51 GiB
Duration                                 : 1h 49mn
Overall bit rate                         : 3 274 Kbps
Movie name                               : Sabotaje 2014 from ExKinoRay
Encoded date                             : UTC 2014-07-21 20:30:42
Writing application                      : mkvmerge v4.9.1 ('Ich will') built on Jul 11 2011 23:53:15
Writing library                          : libebml v1.2.1 + libmatroska v1.1.1
Video
ID                                       : 1
Format                                   : AVC
Format/Info                              : Advanced Video Codec
Format profile                           : [url=mailto:[email protected]][email protected][/url]
Format settings, CABAC                   : Yes
Format settings, ReFrames                : 9 frames
Codec ID                                 : V_MPEG4/ISO/AVC
Duration                                 : 1h 49mn
Bit rate                                 : 2 507 Kbps
Width                                    : 1 024 pixels
Height                                   : 554 pixels
Display aspect ratio                     : 1.85:1
Frame rate mode                          : Constant
Frame rate                               : 23.976 fps
Color space                              : YUV
Chroma subsampling                       : 4:2:0
Bit depth                                : 8 bits
Scan type                                : Progressive
Bits/(Pixel*Frame)                       : 0.184
Stream size                              : 1.87 GiB (75%)
Title                                    : Enigma-Vladislav71
Writing library                          : x264 core 116 r2044 392e762
Encoding settings                        : cabac=1 / ref=9 / deblock=1:-2:-2 / analyse=0x3:0x113 / me=umh / subme=10 / psy=1 / psy_rd=1.00:0.20 / mixed_ref=1 / me_range=32 / chroma_me=1 / trellis=2 / 8x8dct=1 / cqm=0 / deadzone=21,11 / fast_pskip=0 / chroma_qp_offset=-3 / threads=12 / sliced_threads=0 / nr=0 / decimate=0 / interlaced=0 / bluray_compat=0 / constrained_intra=0 / bframes=9 / b_pyramid=2 / b_adapt=2 / b_bias=0 / direct=3 / weightb=1 / open_gop=0 / weightp=2 / keyint=240 / keyint_min=23 / scenecut=40 / intra_refresh=0 / rc=2pass / mbtree=0 / bitrate=2507 / ratetol=1.0 / qcomp=0.60 / qpmin=0 / qpmax=69 / qpstep=4 / cplxblur=20.0 / qblur=0.5 / ip_ratio=1.40 / pb_ratio=1.30 / aq=1:1.00
Default                                  : Yes
Forced                                   : No
Audio #1
ID                                       : 2
Format                                   : AC-3
Format/Info                              : Audio Coding 3
Mode extension                           : CM (complete main)
Format settings, Endianness              : Big
Codec ID                                 : A_AC3
Duration                                 : 1h 49mn
Bit rate mode                            : Constant
Bit rate                                 : 384 Kbps
Channel(s)                               : 6 channels
Channel positions                        : Front: L C R, Side: L R, LFE
Sampling rate                            : 48.0 KHz
Bit depth                                : 16 bits
Compression mode                         : Lossy
Stream size                              : 301 MiB (12%)
Title                                    : DUB (iTunes)
Language                                 : Russian
Default                                  : Yes
Forced                                   : No
Audio #2
ID                                       : 3
Format                                   : AC-3
Format/Info                              : Audio Coding 3
Mode extension                           : CM (complete main)
Format settings, Endianness              : Big
Codec ID                                 : A_AC3
Duration                                 : 1h 49mn
Bit rate mode                            : Constant
Bit rate                                 : 384 Kbps
Channel(s)                               : 6 channels
Channel positions                        : Front: L C R, Side: L R, LFE
Sampling rate                            : 48.0 KHz
Bit depth                                : 16 bits
Compression mode                         : Lossy
Stream size                              : 301 MiB (12%)
Language                                 : English
Default                                  : No
Forced                                   : No
Text
ID                                       : 4
Format                                   : UTF-8
Codec ID                                 : S_TEXT/UTF8
Codec ID/Info                            : UTF-8 Plain Text
Language                                 : Russian
Default                                  : No
Forced                                   : No
Menu
00:00:00.000                             : en:00:00:00.000
00:09:58.556                             : en:00:09:58.556
00:13:13.126                             : en:00:13:13.126
00:19:44.308                             : en:00:19:44.308
00:25:16.932                             : en:00:25:16.932
00:30:09.599                             : en:00:30:09.599
00:34:21.977                             : en:00:34:21.977
00:37:33.376                             : en:00:37:33.376
00:43:00.745                             : en:00:43:00.745
00:48:32.118                             : en:00:48:32.118
00:53:13.107                             : en:00:53:13.107
00:57:38.622                             : en:00:57:38.622
01:03:43.778                             : en:01:03:43.778
01:07:59.450                             : en:01:07:59.450
01:14:38.557                             : en:01:14:38.557
01:18:42.551                             : en:01:18:42.551
01:22:41.165                             : en:01:22:41.165
01:28:49.491                             : en:01:28:49.491
01:35:39.317                             : en:01:35:39.317
01:42:47.828                             : en:01:42:47.828
Скриншоты:-Время раздачи: Круглосуточно (До 5-ти скачавших)
Яндекс.Метрика
Рейтинг@Mail.ru