Однажды в Америке / Once Upon a Time in America (1984) BDRip [H.264]

 

Создавать темы 22-Июл-2014 15:26

-Однажды в Америке / Once Upon a Time in America (1984) BDRip [H.264]- Год выпуска: 1984
Жанр: Драма, Криминал
Производство: Италия, США
Описание фильма: В бурные двадцатые годы, когда Америка веселилась под звуки джаза и каждый бродяга мечтал стать миллионером, в трущобах Нью-Йорка встретились несколько отчаянных парней. Убирая с дороги конкурентов, безжалостно карая предателей и нагло проворачивая хитроумные аферы, они стали королями преступного мира золотой эры «сухого закона». Они поклялись отдать жизнь друг за друга, зная, что самое главное для них — это дружба, долг и справедливость — не утопить в реках крови и бездонном океане денег. Спустя много лет судьба жестоко обошлась с легендарными гангстерами, заставив их исполнить свою клятву. Это случилось однажды в Америке…
Режиссер: Серджио Леоне
Актеры: Роберт Де Ниро, Джеймс Вудс, Элизабет МакГоверн, Дарлэнн Флюгель, Ричард Брайт, Герард Мерфи, Ольга Карлатос, Марио Брега, Фрэнк Джио, Карен Шалло, Клем Касерта, Фрэнк Систо, Джерри Стривелли, Марвин Скотт (I), Пол Херман, Джои Фэй, Танди Кронин, Ричард Зобель, Бакстер Харрис, Арнон Милчэн, Бруно Ианнон, Марсия Жан Кертц, Эстель Харрис, Ричард Фороньи, Клифф Кадни, Дач Миллер, Рэй Диттрих, Анджело Флорио, Джули Коэн, Тьюсдей Уэлд, Линда Ипанема, Трит Уильямс, Джеймс Хэйден, Александр Годфри...
Перевод: Многоголосый закадровый (профессиональный) | Позитив-Мультимедиа
Язык субтитров: Русский, Английский
Вид субтитров: Вшитые -отключаемые
Дата мировой премьеры: 17 февраля 1984
Продолжительность: 03:49:20
Качество видео: BDRip
Видеокодек: MPEG-4 AVC/H.264
Битрейт видео: ~1171 kbps
Размер кадра: 912x512
Аудиокодек: AC3 2.0
Битрейт аудио: 192.00 kbps

MediaInfo

Общее
Уникальный идентификатор : 176499196149590338235256702738895620268 (0x84C8823A53571E9DB67E09E59ACA48AC)
Полное имя : D:\Torrent\Once Upon a Time in America.1984.BDRip-AVC.mkv
Формат : Matroska
Версия формата : Version 4 / Version 2
Размер файла : 2,19 Гбайт
Продолжительность : 3 ч. 49 м.
Общий поток : 1365 Кбит/сек
Название фильма : Однажды в Америке / Once Upon a Time in America (1984) BDRip-AVC rip by Rulya74
Дата кодирования : UTC 2014-07-11 11:23:38
Программа кодирования : mkvmerge v6.5.0 ('Isn't she lovely') built on Oct 20 2013 12:50:05
Библиотека кодирования : libebml v1.3.0 + libmatroska v1.4.1
Видео
Идентификатор : 1
Формат : AVC
Формат/Информация : Advanced Video Codec
Профиль формата : [url=mailto:[email protected]][email protected][/url]
Параметр CABAC формата : Да
Параметр ReFrames формата : 9 кадров
Идентификатор кодека : V_MPEG4/ISO/AVC
Продолжительность : 3 ч. 49 м.
Битрейт : 1171 Кбит/сек
Ширина : 912 пикселей
Высота : 512 пикселей
Соотношение сторон : 16:9
Режим частоты кадров : Постоянный
Частота кадров : 23,976 кадра/сек
Цветовое пространство : YUV
Субдискретизация насыщенности : 4:2:0
Битовая глубина : 8 бит
Тип развёртки : Прогрессивная
Бит/(Пиксели*Кадры) : 0.105
Размер потока : 1,84 Гбайт (84%)
Библиотека кодирования : x264 core 142 r2431 ac76440
Настройки программы : cabac=1 / ref=9 / deblock=1:-3:-3 / analyse=0x3:0x113 / me=umh / subme=11 / psy=1 / psy_rd=1.00:0.00 / mixed_ref=1 / me_range=48 / chroma_me=1 / trellis=2 / 8x8dct=1 / cqm=0 / deadzone=21,11 / fast_pskip=0 / chroma_qp_offset=-2 / threads=14 / lookahead_threads=3 / sliced_threads=0 / nr=0 / decimate=1 / interlaced=0 / bluray_compat=0 / constrained_intra=0 / bframes=12 / b_pyramid=2 / b_adapt=2 / b_bias=0 / direct=1 / weightb=1 / open_gop=0 / weightp=2 / keyint=240 / keyint_min=23 / scenecut=40 / intra_refresh=0 / rc_lookahead=40 / rc=2pass / mbtree=1 / bitrate=1171 / ratetol=1.0 / qcomp=0.60 / qpmin=0 / qpmax=69 / qpstep=4 / cplxblur=20.0 / qblur=0.5 / vbv_maxrate=62500 / vbv_bufsize=78125 / nal_hrd=none / filler=0 / ip_ratio=1.40 / aq=1:1.00
Default : Да
Forced : Нет
Аудио
Идентификатор : 2
Формат : AC-3
Формат/Информация : Audio Coding 3
Расширение режима : CM (complete main)
Параметр Endianness формата : Big
Идентификатор кодека : A_AC3
Продолжительность : 3 ч. 49 м.
Вид битрейта : Постоянный
Битрейт : 192 Кбит/сек
Каналы : 2 канала
Расположение каналов : Front: L R
Частота : 48,0 КГц
Битовая глубина : 16 бит
Метод сжатия : С потерями
Размер потока : 315 Мбайт (14%)
Заголовок : Профессиональный (многоголосый закадровый) | Позитив-Мультимедиа
Язык : Russian
Default : Да
Forced : Нет
Текст #1
Идентификатор : 3
Формат : UTF-8
Идентификатор кодека : S_TEXT/UTF8
Идентификатор кодека/Информация : UTF-8 Plain Text
Язык : Russian
Default : Да
Forced : Нет
Текст #2
Идентификатор : 4
Формат : UTF-8
Идентификатор кодека : S_TEXT/UTF8
Идентификатор кодека/Информация : UTF-8 Plain Text
Язык : English
Default : Нет
Forced : Нет

Скриншоты:

Яндекс.Метрика
Рейтинг@Mail.ru