[ Сегодня на трекере фрилич! Идет свободное скачивание без начисления Download ]

Такси 3 / Taxi 3 (2003) BDRip

 

Создавать темы 22-Июл-2014 08:46

-Такси 3 / Taxi 3 (2003) BDRip- Год выпуска: 2003
Выпущено: Apipoulai, ARP Selection, Canal+ [fr], Europa Corp., TF1 Films Productions, Франция
Жанр: Комедия, боевик, приключения, криминал
Описание фильма:
Банда Санта-Клаусов терроризирует Марсель в канун Рождества, обещая обчистить город до основания. Комиссар полиции уже задумал провести крупномасштабную операцию под кодовым названием «Снеговик», в который главная роль отведена таксисту Даниелю и полицейскому Эмильену. Но как бы наши друзья не натворили куда больший вред, чем сами преступники, ведь чтобы поймать «мафию Дедов Морозов» друзья вытворяют на своем такси такое!
Режиссер: Жерар Кравчик
Актеры: Сами Насери, Фредерик Дифенталь, Бернар Фарси, Бай Лин, Эмма Сьоберг, Марион Котийяр, Эдуард Монтут, Жан-Кристоф Бове, Леон-Пьер Мондини, Бернард Льопис, Жан-Луи Шлессер, Жан-Пье
Продолжительность: 01:28:25
Качество видео: BDRip [Исходник: Blu-ray 1080p AVC DTS-HD 5.1]
Перевод: Дублированный (Мосфильм-Мастер), профессиональный многоголосый (Карусель), авторский одноголосый (А. Гаврилов)
Оригинальная аудио-дорожка: Нет
Cубтитры: Нет

Дата мировой премьеры: 29 января 2003
Дата российской премьеры: 27 марта 2003, «Гельварс»
Дата выхода DVD релиза: 23 июля 2009, «CP-Digital»
Дата выхода Blu-Ray релиза: 21 сентября 2011, «Кармен Видео»
Видеокодек: XviD
Битрейт видео: 2222 Кбит/с
Размер кадра: 720x304 (2.35:1)
Частота кадров: 24 кадр/с
Аудиокодек: AC3 5.1
Аудио #1: Русский, Dolby АС3, 48000 Гц, 448 Кбит/с, 6 каналов (5.1) - Дублированный (Мосфильм-Мастер)
Аудио #2: Русский, Dolby АС3, 48000 Гц, 448 Кбит/с, 6 каналов (5.1) - Профессиональный многоголосый (Карусель)
Аудио #3: Русский, Dolby АС3, 48000 Гц, 448 Кбит/с, 6 каналов (5.1) - Авторский одноголосый (Андрей Гаврилов)
Автор рипа - ivandubskoj

Знаете ли вы, что...

В одном из кадров можно заметить плакат к фильму «Васаби» режиссером которого является Жерар Кравчик, а продюсером и сценаристом - Люк Бессон.
Когда Даниэль везёт персонажа Сильвестра Сталлоне, он обгоняет поезд TGV, «крейсерская» скорость которого превышает 300 км/ч.

MediaInfo

General
Complete name : Taxi.3.2003.BDRip.avi
Format : AVI
Format/Info : Audio Video Interleave
Format profile : OpenDML
File size : 2.19 GiB
Duration : 1h 27mn
Overall bit rate : 3 581 Kbps
Movie name : Такси 3 / Taxi 3 (2003) BDRip
Genre : Комедия, боевик, приключения
Recorded date : 20.07.2014
Writing application : VirtualDubMod 1.5.10.3 | www.virtualdub-fr.org || (build 2550/release)
Writing library : VirtualDubMod build 2550/release
Copyright : rip by ivandubskoj
Video
ID : 0
Format : MPEG-4 Visual
Format profile : Advanced [email protected]
Format settings, BVOP : 1
Format settings, QPel : No
Format settings, GMC : No warppoints
Format settings, Matrix : Custom
Codec ID : XVID
Codec ID/Hint : XviD
Duration : 1h 27mn
Bit rate : 2 222 Kbps
Width : 720 pixels
Height : 304 pixels
Display aspect ratio : 2.35:1
Frame rate : 24.000 fps
Color space : YUV
Chroma subsampling : 4:2:0
Bit depth : 8 bits
Scan type : Progressive
Compression mode : Lossy
Bits/(Pixel*Frame) : 0.423
Stream size : 1.36 GiB (62%)
Writing library : XviD 73
Audio #1
ID : 1
Format : AC-3
Format/Info : Audio Coding 3
Mode extension : CM (complete main)
Codec ID : 2000
Duration : 1h 27mn
Bit rate mode : Constant
Bit rate : 448 Kbps
Channel(s) : 6 channels
Channel positions : Front: L C R, Side: L R, LFE
Sampling rate : 48.0 KHz
Bit depth : 16 bits
Compression mode : Lossy
Stream size : 280 MiB (12%)
Alignment : Split accross interleaves
Interleave, duration : 64 ms (1.54 video frames)
Interleave, preload duration : 500 ms
Title : Russian [DUB, Мосфильм-Мастер]
Audio #2
ID : 2
Format : AC-3
Format/Info : Audio Coding 3
Mode extension : CM (complete main)
Codec ID : 2000
Duration : 1h 27mn
Bit rate mode : Constant
Bit rate : 448 Kbps
Channel(s) : 6 channels
Channel positions : Front: L C R, Side: L R, LFE
Sampling rate : 48.0 KHz
Bit depth : 16 bits
Compression mode : Lossy
Stream size : 280 MiB (12%)
Alignment : Split accross interleaves
Interleave, duration : 64 ms (1.54 video frames)
Interleave, preload duration : 500 ms
Title : Russian [MVO, Карусель]
Audio #3
ID : 3
Format : AC-3
Format/Info : Audio Coding 3
Mode extension : CM (complete main)
Codec ID : 2000
Duration : 1h 27mn
Bit rate mode : Constant
Bit rate : 448 Kbps
Channel(s) : 6 channels
Channel positions : Front: L C R, Side: L R, LFE
Sampling rate : 48.0 KHz
Bit depth : 16 bits
Compression mode : Lossy
Stream size : 280 MiB (12%)
Alignment : Split accross interleaves
Interleave, duration : 64 ms (1.54 video frames)
Interleave, preload duration : 500 ms
Title : Russian [AVO, А. Гаврилов]
Скриншоты:
-Время раздачи: 18-00-23:00
Яндекс.Метрика
Рейтинг@Mail.ru