(Flamenco, Fusion) [CD] Paco de Lucía - Canción Andaluza - 2014, FLAC (image+.cue), lossless

 

Создавать темы 21-Июл-2014 20:31

Paco de Lucia - Cancion Andaluza- Жанр: Flamenco, Fusion
Носитель: CD
Страна-производитель диска: Russia
Год издания: 2014
Издатель (лейбл): Наша Раша
Аудиокодек: FLAC (*.flac)
Тип рипа: image+.cue
Битрейт аудио: lossless
Продолжительность: 36'12''
Источник (релизер): RedHotBlues
Наличие сканов в содержимом раздачи: да
Треклист:
01. Maria de la O [0:03:58.61]
02. Ojos verdes [0:04:49.18]
03. Romance de valentia [0:04:06.40]
04. Te he de querer mientras viva [0:03:35.03]
05. La chiquita piconera [0:03:24.36]
06. Zambra Gitana [0:04:08.68]
07. Quiroga por bulerias [0:06:13.38]
08. Senorita [0:05:53.45]

Отчёт EAC

Exact Audio Copy V1.0 beta 3 from 29. August 2011
Отчёт EAC об извлечении, выполненном 20. июля 2014, 0:17
Paco de Lucía / Canción Andaluza
Дисковод: ATAPI   iHAS122   C   Adapter: 3  ID: 1
Режим чтения                 : Достоверность
Использование точного потока : Да
Отключение кэша аудио        : Да
Использование указателей C2  : Нет
Коррекция смещения при чтении                     : 6
Способность читать области Lead-in и Lead-out     : Нет
Заполнение пропущенных сэмплов тишиной            : Да
Удаление блоков с тишиной в начале и конце        : Нет
При вычислениях CRC использовались нулевые сэмплы : Да
Интерфейс                                         : Встроенный Win32-интерфейс для Win NT/2000
Выходной формат          : Пользовательский кодировщик
Выбранный битрейт        : 896 kBit/s
Качество                 : Высокий
Добавление ID3-тега      : Да
Утилита сжатия           : C:\Program Files\Exact Audio Copy\FLAC\FLAC.EXE
Дополнительные параметры : -6 -V -T "ARTIST=%artist%" -T "TITLE=%title%" -T "ALBUM=%albumtitle%" -T "DATE=%year%" -T "TRACKNUMBER=%tracknr%" -T "GENRE=%genre%" -T "COMMENT=%comment%" -T "BAND=%albuminterpret%" -T "ALBUMARTIST=%albuminterpret%" -T "COMPOSER=%composer%" %haslyrics%--tag-from-file=LYRICS="%lyricsfile%"%haslyrics% -T "DISCNUMBER=%cdnumber%" -T "TOTALDISCS=%totalcds%" -T "TOTALTRACKS=%numtracks%" %hascover%--picture="%coverfile%"%hascover% %source% -o %dest%
TOC извлечённого CD
     Трек |   Старт  | Длительность | Начальный сектор | Конечный сектор
    ---------------------------------------------------------------------
       1  |  0:00.00 |    3:58.61   |           0      |      17910
       2  |  3:58.61 |    4:49.18   |       17911      |      39603
       3  |  8:48.04 |    4:06.40   |       39604      |      58093
       4  | 12:54.44 |    3:35.03   |       58094      |      74221
       5  | 16:29.47 |    3:24.36   |       74222      |      89557
       6  | 19:54.08 |    4:08.68   |       89558      |     108225
       7  | 24:03.01 |    6:13.38   |      108226      |     136238
       8  | 30:16.39 |    5:53.45   |      136239      |     162758
Характеристики диапазона извлечения и сообщения об ошибках
Выбранный диапазон
     Имя файла C:\Documents and Settings\Admin\Рабочий стол\NEW STUFF\Paco de Lucía - Canción Andaluza - 2014 - 36'12''\Paco de Lucía - Canción Andaluza.wav
     Пиковый уровень 98.7 %
     Скорость извлечения 3.1 X
     Качество диапазона 100.0 %
     CRC теста 204D8F03
     CRC копии 204D8F03
     Копирование... OK
Ошибок не произошло
Конец отчёта
==== Контрольная сумма отчёта D6EEBC205F6A344F0E6B4984259682A2213FE8F84FBA9B5C7AA1A038ABF12C60 ====
Яндекс.Метрика
Рейтинг@Mail.ru