[ Сегодня на трекере фрилич! Идет свободное скачивание без начисления Download ]

Принцесса Лилифи в стране единорогов / Prinzessin Lillifee und das kleine Einhorn (Хьюберт Вейланд, Ансгар Нибур / Hubert Weiland, Ansgar Niebuhr) [2011, Мультфильм, полнометражный, SATRip] Dub

 

Создавать темы 21-Июл-2014 06:00

Принцесса Лилифи в стране единорогов / Prinzessin Lillifee und das kleine Einhorn
Страна: Германия, Caligari Film- und F
Жанр: Мультфильм, полнометражный
Продолжительность: 01:07:27
Год выпуска: 2011
Перевод: Профессиональный (дублированный)
Русские субтитры: нет
Режиссёр: Хьюберт Вейланд, Ансгар Нибур / Hubert Weiland, Ansgar Niebuhr
Описание: В волшебном Розовом королевстве Лиллифи и ее друзья наслаждаются теплым летом. Однажды ночью принцесса видит странный сон, в котором единорог Розали просит ее присмотреть за своей маленькой дочерью — Люси. Проснувшись, Лиллифи с удивлением обнаруживает, что Люси чудесным образом оказалась на кровати принцессы. Но что же произошло с Розали? Лиллифи решает оправить Люси обратно к маме. Для того чтобы найти маму-единорога, принцесса оправляется в соседнее Синее королевство. Когда друзья прибывают туда, они узнают, что на эти земли было наложено ужасное заклятие: в середине лета здесь стоят морозы, и все покрыто льдом и снегом. Оказывается, это коварный принц заморозил прекрасную страну в глубокий зимний сон. Это он похитил родителей Люси и заточил их в ледяные оковы, и застывший лед может быть расплавлен только чудесной силой единорогов. Теперь Люси — единственная надежда страны единорогов. Вместе с принцессой Лиллифи она приложит все усилия для того, чтобы попытается освободить прекрасную страну от ужасного проклятия...
Качество: SATRip
Формат: AVI
Видео: Xvid, 720x400, 25fps, 1 500 Kbps
Аудио: AC3 48000Hz stereo 192kbps
Субтитры: отсутствуют

Подробные технические данные

C:\Users\Dmitriy\Documents\Принцесса Лилифи в стране единорогов.2011.XviD.SATRip.avi General Complete name : C:\Users\Dmitriy\Documents\Принцесса Лилифи в стране единорогов.2011.XviD.SATRip.avi Format : AVI Format/Info : Audio Video Interleave File size : 821 MiB Duration : 1h 7mn Overall bit rate : 1 702 Kbps Movie name : Prinzessin Lillifee und das kleine Einhorn Director : SATRip by Thunder Writing application : VirtualDubMod 1.5.10.3 | www.virtualdub-fr.org || (build 2550/release) Original source form/Name : Cartoon Video #0 ID : 0 Format : MPEG-4 Visual Format profile : Advanced [email protected] Format settings, BVOP : Yes Format settings, QPel : No Format settings, GMC : No warppoints Format settings, Matrix : Default (H.263) Codec ID : XVID Codec ID/Hint : XviD Duration : 1h 7mn Bit rate : 1 500 Kbps Width : 720 pixels Height : 400 pixels Display aspect ratio : 16:9 Frame rate : 25.000 fps Color space : YUV Chroma subsampling : 4:2:0 Bit depth : 8 bits Scan type : Progressive Bits/(Pixel*Frame) : 0.208 Stream size : 724 MiB (88%) Writing library : XviD 1.2.1 (UTC 2008-12-04) Audio #1 ID : 1 Format : AC-3 Format/Info : Audio Coding 3 Mode extension : CM (complete main) Codec ID : 2000 Duration : 1h 7mn Bit rate mode : Constant Bit rate : 192 Kbps Channel(s) : 2 channels Channel positions : Front: L R Sampling rate : 48.0 KHz Bit depth : 16 bits Stream size : 92.6 MiB (11%) Alignment : Split accross interleaves Interleave, duration : 40 ms (1.00 video frame) Interleave, preload duration : 500 ms

Скриншоты


Яндекс.Метрика
Рейтинг@Mail.ru