Маленькая проблема Эйлюль / Bir Kucuk Eylul Meselesi (Керем Дерен / Kerem Deren) (2014, Драма, мелодрама, детектив, DVDRip)

 

Создавать темы 20-Июл-2014 15:36

Маленькая проблема Эйлюль / Bir Kucuk Eylul Meselesi- Год выпуска: 2014
Производство: Турция, телекомпания "Ay Yapim"
Жанр: Драма, мелодрама, детектив
Описание фильма:
Эйлюль - красивая, интересная и веселая девушка. Кроме того, она обычно получает от жизни все, что только захочет. Но, однажды, с ней что-то случилось и она никак не может вспомнить последний прожитый месяц... Друзья это не замечают и успокаивают ее, что все нормально и проблем нет. Однако, Эйлюль, прекрасно понимает - с ней что-то произошло. Чтобы вернуть память, Эйлюль отправляется на остров и там встречает странного человека…
Режиссер: Керем Дерен / Kerem Deren
Продюсер: Керем Джатай
Актеры: Фарах Зейнеп Абдуллах, Энгин Акюрек, Онур Туна, Серра Кескин, Джерен Морай, Мерве Булут, Эже Айдан, Эбру Айкач, Хусейн Пехливан
Продолжительность: 01:42:41
Перевод: Любительский двухголосый
Озвучка / Автор перевода: Бислан Нагоев и Лидия Максимова
Субтитры: отсутствуют
Дата мировой премьеры: 14 февраля 2014
Видеокодек: XviD
Битрейт видео: ~1614 Кбит/с
Размер кадра: 720x288
Качество видео: DVDRip
Аудио 1: MP3, 2 ch, 192 Кбит/с - русский
Аудио 2: MP3, 2 ch, 192 Кбит/с - турецкий

MediaInfo:

Общее
Полное имя : C:\Маленькая проблема Эйлюль\Malenjkaya problema Ejlul 2014 DVDRip.avi
Формат : AVI
Формат/Информация : Audio Video Interleave
Размер файла : 1,44 Гбайт
Продолжительность : 1 ч. 42 м.
Общий поток : 2012 Кбит/сек
Видео
Идентификатор : 0
Формат : MPEG-4 Visual
Профиль формата : Advanced [email protected]
Параметр BVOP формата : 2
Параметр QPel формата : Нет
Параметр GMC формата : Без точки перехода
Параметр матрицы формата : Default (H.263)
Идентификатор кодека : XVID
Идентификатор кодека/Подсказка : XviD
Продолжительность : 1 ч. 42 м.
Битрейт : 1614 Кбит/сек
Ширина : 720 пикселей
Высота : 288 пикселей
Соотношение сторон : 2,500
Частота кадров : 25,000 кадров/сек
Цветовое пространство : YUV
Субдискретизация насыщенности : 4:2:0
Битовая глубина : 8 бит
Тип развёртки : Прогрессивная
Метод сжатия : С потерями
Бит/(Пиксели*Кадры) : 0.311
Размер потока : 1,16 Гбайт (80%)
Библиотека кодирования : XviD 64
Аудио #1
Идентификатор : 1
Формат : MPEG Audio
Версия формата : Version 1
Профиль формата : Layer 3
Идентификатор кодека : 55
Идентификатор кодека/Подсказка : MP3
Продолжительность : 1 ч. 42 м.
Вид битрейта : Постоянный
Битрейт : 192 Кбит/сек
Каналы : 2 канала
Частота : 44,1 КГц
Метод сжатия : С потерями
Размер потока : 141 Мбайт (10%)
Выравнивание : Разделение по промежуткам
Продолжительность промежутка : 40 мс. (1,00 видеокадр)
Время предзагрузки промежутка : 500 мс.
Библиотека кодирования : LAME3.98r
Аудио #2
Идентификатор : 2
Формат : MPEG Audio
Версия формата : Version 1
Профиль формата : Layer 3
Режим : Joint stereo
Расширение режима : MS Stereo
Идентификатор кодека : 55
Идентификатор кодека/Подсказка : MP3
Продолжительность : 1 ч. 42 м.
Вид битрейта : Постоянный
Битрейт : 192 Кбит/сек
Каналы : 2 канала
Частота : 44,1 КГц
Метод сжатия : С потерями
Размер потока : 141 Мбайт (10%)
Выравнивание : Разделение по промежуткам
Продолжительность промежутка : 40 мс. (1,00 видеокадр)
Время предзагрузки промежутка : 500 мс.
Библиотека кодирования : LAME3.99.5
Скриншоты:
Яндекс.Метрика
Рейтинг@Mail.ru