Шесть дней, семь ночей / Six Days Seven Nights (Айвен Райтман/ Ivan Reitman) [1998, Боевик, Мелодрама, Комедия, Приключения, HDTVRip]

 

Создавать темы 19-Июл-2014 15:26

-Шесть дней, семь ночей / Six Days Seven Nights-«After this week in paradise, they're going to need a vacation»- Год выпуска: 1998
Жанр: Боевик, Мелодрама, Комедия, Приключения
Производство: США / Caravan Pictures, Northern Lights Entertainment, Roger Birnbaum Productions, Touchstone Pictures
Описание фильма:
Небольшой самолет терпит катастрофу на необитаемом острове. Отважный летчик и его очаровательная пассажирка оказались совершенно одни среди дикой природы. Они отчаянно пытаются сообщить о себе, но не знают, что их уже давно перестали искать. Наконец, впервые за эти дни на пустынном горизонте показался странный корабль, который причалил к затерянному острову.
Но вместо того, чтобы улыбнуться невезучей парочке, судьба снова посмеялась над ними. Вооруженные до зубов пираты так не похожи на долгожданных спасителей! Пилот и его спутница так стремились оказаться в веселой компании. Теперь они хотят снова остаться наедине…

Режиссер: Айвен Райтман
Сценарий: Майкл Браунинг
Продюсер: Роджер Бирнбаум, Уоллис Никита, Айвен Райтман
Актеры: Харрисон Форд, Энн Хеч, Дэвид Швиммер, Жаклин Обрадорс, Темуэра Моррисон, Эллисон Дженни, Дуглас Уэстон, Клифф Кёртис, Дэнни Трехо, Бен Боуд
Продолжительность: 01:42:01
Качество видео: HDTVRip
Перевод: Дублированный (Невафильм, 1998)
Дата мировой премьеры: 12 июня 1998
Дата выхода DVD релиза: 29 июня 2010, «Уолт Дисней Компани СНГ»
Видеокодек: MPEG-4 AVC/H.264
Битрейт видео: ~1849 Кбит/сек
Размер кадра: 1024x576
Аудиокодек: AC3 2.0
Битрейт аудио: 192 Кбит/сек

Знаете ли вы, что...

Самолёт, которым управляет герой Харрисона Форда, это одномоторный DeHavilland Beaver. Актёр является владельцем точно такого же самолета, и сам управлял им на съёмках картины. Однако, несмотря на то, что он является довольно опытным пилотом, Харрисону Форду пришлось пройти дополнительную сертификацию для страховой компании с тем, что ему было разрешено управлять самолётом с другими людьми на борту.
Использованный в фильме аэроплан был задействован также при съёмках картины «На грани (1997). В обеих кинолентах он терпит аварию.
Основной кандидатурой на главную женскую роль была Джулия Робертс.
Съёмки фильма прошли с 7 июля по 29 октября 1997 года на Гавайских островах.

Реценция с кинопоиска от Tommy M:

«Задержаться мы здесь можем надолго, очень, очень, очень… надолго!»
Забавная и красивая комедия от режиссера Айвена Райтмана, снятая на фоне живописного необитаемого острова, с отличным набором актеров и юмора.
Робин Монро (Энн Хеч) редактор модного женского журнала, успешная бизнес леди. Ее парень Фрэнк Мартин (Дэвид Швиммер), чтобы сделать более запоминающимся предложение руки и сердца, берет путевку на тропический остров, путевку на шесть дней и семь ночей. Опоздав на свои рейс парочка вынуждена прибегнуть к помощи частника Квина Харриса (Харрисон Форд), на старом, но еще действующем самолете. Удачно приземлившись, Робин и Фрэнк не успев толком разложить вещи и побыть вместе, должны ненадолго расстаться, т. к. начальник Робин сообщает ей, что она единственная, на кого она может положиться, и что ей нужно слетать на близлежащий остров Таити, чтобы провести важную встречу; поездка займет всего один день. Единственный, кто может ее выручить в данной ситуации, все тот же пьющий пилот Квин. Несмотря на предостерегающий от полетов прогноз, они вылетают. Но до нужной точки не долетают и терпят крушение, как потом выясняется, на необитаемом острове с орудующими на нем пиратами…
Фильм оставляет только массу положительных впечатлений. Побег от пиратов, красивый пейзаж острова, павлины, любовная линия — все это присутствует в данной картине. Харрисон Форд и Энн Хеч сыграли довольно разную по характеру, но милую пару. Много комических ситуаций связанно с Энн Хеч, ее мимика и удивленные глаза никого не оставят равнодушными. Фильм снабжен добрым, совершенно не пошлым юмором. Прекрасное музыкальное сопровождение, преследующее на протяжении фильма. Фильм, который будет приятно посмотреть в кругу семьи. Хорошее настроение гарантировано. Желаю приятного просмотра!
Спасибо за внимание
Однозначно
10 из 10

MediaInfo:

General
Unique ID : 239158638359113552466618219621466648550 (0xB3EC473F288791DEAC84895C08BA2FE6)
Format : Matroska
Format version : Version 4 / Version 2
File size : 1.45 GiB
Duration : 1h 42mn
Overall bit rate : 2 042 Kbps
Encoded date : UTC 2014-06-19 21:24:43
Writing application : mkvmerge v6.4.1 ('Omega Point') built on Sep 16 2013 22:05:10
Writing library : libebml v1.3.0 + libmatroska v1.4.1
Video
ID : 1
Format : AVC
Format/Info : Advanced Video Codec
Format profile : [url=mailto:[email protected]][email protected][/url]
Format settings, CABAC : Yes
Format settings, ReFrames : 5 frames
Codec ID : V_MPEG4/ISO/AVC
Duration : 1h 42mn
Bit rate : 1 849 Kbps
Width : 1 024 pixels
Height : 576 pixels
Display aspect ratio : 16:9
Frame rate mode : Constant
Frame rate : 29.970 fps
Color space : YUV
Chroma subsampling : 4:2:0
Bit depth : 8 bits
Scan type : Progressive
Bits/(Pixel*Frame) : 0.105
Stream size : 1.29 GiB (89%)
Title : Six Days Seven Nights
Writing library : x264 core 129 r2245 bc13772
Encoding settings : cabac=1 / ref=5 / deblock=1:0:0 / analyse=0x3:0x113 / me=umh / subme=9 / psy=1 / psy_rd=1.00:0.00 / mixed_ref=1 / me_range=32 / chroma_me=1 / trellis=2 / 8x8dct=1 / cqm=0 / deadzone=21,11 / fast_pskip=1 / chroma_qp_offset=-2 / threads=6 / lookahead_threads=1 / sliced_threads=0 / nr=0 / decimate=1 / interlaced=0 / bluray_compat=0 / constrained_intra=0 / bframes=3 / b_pyramid=2 / b_adapt=2 / b_bias=0 / direct=3 / weightb=1 / open_gop=0 / weightp=2 / keyint=300 / keyint_min=29 / scenecut=40 / intra_refresh=0 / rc_lookahead=50 / rc=2pass / mbtree=1 / bitrate=1849 / ratetol=1.0 / qcomp=0.60 / qpmin=0 / qpmax=69 / qpstep=4 / cplxblur=20.0 / qblur=0.5 / ip_ratio=1.40 / aq=1:1.00
Language : English
Default : Yes
Forced : No
Audio
ID : 2
Format : AC-3
Format/Info : Audio Coding 3
Mode extension : CM (complete main)
Format settings, Endianness : Big
Codec ID : A_AC3
Duration : 1h 42mn
Bit rate mode : Constant
Bit rate : 192 Kbps
Channel(s) : 2 channels
Channel positions : Front: L R
Sampling rate : 48.0 KHz
Bit depth : 16 bits
Compression mode : Lossy
Stream size : 140 MiB (9%)
Title : Дублированный
Language : Russian
Default : Yes
Forced : No
Скриншоты:
Яндекс.Метрика
Рейтинг@Mail.ru