Need for Speed: Жажда скорости / Need for Speed (Скотт Во) [2014, боевик, триллер, драма, криминал, BD-Remux] DUB [Лицензия]

 

Создавать темы 18-Июл-2014 16:03

--Need for Speed: Жажда скорости / Need for Speed-«Тормоза придумал трус»-- Год выпуска: 2014
Страна: США, Филиппины, Ирландия, Великобритания
Производство: Bandito Brothers, DreamWorks SKG, Electronic Arts, Reliance Entertainment
Жанр: боевик, триллер, драма, криминал
Продолжительность: 02:10:42
Перевод: Профессиональный (полное дублирование) [Лицензия]-Режиссер: Скотт Во-В ролях: Аарон Пол, Доминик Купер, Имоджен Путс, Дакота Джонсон, Майкл Китон, Рамон Родригес, Ник Чинланд, Скотт Мескади, Рами Малек, Харрисон Джилбертсон...-Описание: История Тоби Маршалла, гениального автомеханика, чьей единственной отдушиной является участие в подпольных гонках. Чтобы сохранить семейную мастерскую, Тоби вынужден взять в партнеры богатого и заносчивого бывшего гонщика NASCAR Дино Брюстера. Когда дела Тоби наконец-то начинают идти в гору, Дино подставляет партнера, и Тоби обвиняют в преступлении, которого он не совершал. Спустя два года Тоби выходит из тюрьмы с мыслью о мести. Чтобы достичь своей цели, ему придется совершить невозможное и доказать, что даже в мире броских суперкаров самый невзрачный гонщик может финишировать первым.-- --Качество видео: BD-Remux (Исходник: Blu-Ray Disc)
Формат видео: MKV
Видео кодек: MPEG-4
Аудио кодек: AC3, DTS-HD MA
Видео: 1920x1080 (1.78:1), 23.976 fps, MPEG-4 AVC, ~29.5 Mbps avg, 0.608 bit/pixel
Аудио #1: [RUS] 48.0 kHz, AC3 Dolby Digita, 5.1 (L,C,R,l,r) + LFE ch, ~640.00 kbps avg
Аудио #2: [ENG] 48.0 kHz, DTS-HD MA, 7.1 (L,C,R,l,r) + LFE ch, ~5228.00 kbps avg
Аудио #3: [ENG] 48.0 kHz, AC3 Dolby Digital, 2.0 (L,R) ch, ~320.00 kbps avg
Аудио #4: [ENG] 48.0 kHz, AC3 Dolby Digital, 2.0 (L,R) ch, ~192.00 kbps avg
Субтитры: русские (2 вида), английские (встроенные, отключаемые)
Дополнительно: Сохранены оригинальные чаптеры, как на Blu-Ray.
--

Media Info

Полное имя : D:Need.for.Speed.Жажда.скорости-Need.for.Speed.(2014).BDRemux.[1080p].mkv
Формат : Matroska
Версия формата : Version 2
Размер файла : 32,5 Гбайт
Продолжительность : 2 ч. 10 м.
Режим общего битрейта : Переменный
Общий поток : 35,6 Мбит/сек
Название фильма : Need for Speed (2014) / Lelya_K for NNM-Club
Дата кодирования : UTC 2014-07-17 00:07:36
Программа кодирования : mkvmerge v5.7.0 ('The Whirlwind') built on Aug 7 2012 14:11:40
Библиотека кодирования : libebml v1.2.3 + libmatroska v1.3.0
Attachment : Yes
Видео
Идентификатор : 1
Формат : AVC
Формат/Информация : Advanced Video Codec
Профиль формата : [email protected]
Параметр CABAC формата : Да
Параметр ReFrames формата : 4 кадра
Идентификатор кодека : V_MPEG4/ISO/AVC
Продолжительность : 2 ч. 10 м.
Вид битрейта : Переменный
Битрейт : 30,2 Мбит/сек
Максимальный битрейт : 32,0 Мбит/сек
Ширина : 1920 пикселей
Высота : 1080 пикселей
Соотношение сторон : 16:9
Режим частоты кадров : Постоянный
Частота кадров : 23,976 кадра/сек
Цветовое пространство : YUV
Субдискретизация насыщенности : 4:2:0
Битовая глубина : 8 бит
Тип развёртки : Прогрессивная
Бит/(Пиксели*Кадры) : 0.608
Размер потока : 27,6 Гбайт (85%)
Заголовок : Need.for.Speed.Жажда.скорости-Need.for.Speed.(2014).BDRemux.[1080p]
Язык : English
Default : Да
Forced : Нет
Аудио #1
Идентификатор : 2
Формат : AC-3
Формат/Информация : Audio Coding 3
Расширение режима : CM (complete main)
Параметр Endianness формата : Big
Идентификатор кодека : A_AC3
Продолжительность : 2 ч. 10 м.
Вид битрейта : Постоянный
Битрейт : 640 Кбит/сек
Каналы : 6 каналов
Расположение каналов : Front: L C R, Side: L R, LFE
Частота : 48,0 КГц
Битовая глубина : 16 бит
Метод сжатия : С потерями
Размер потока : 599 Мбайт (2%)
Заголовок : AC3 5.1 / 640 kbps / Dub (Blu-ray 3D EUR)
Язык : Russian
Default : Да
Forced : Нет
Аудио #2
Идентификатор : 3
Формат : DTS
Формат/Информация : Digital Theater Systems
Профиль формата : MA / Core
Идентификатор кодека : A_DTS
Продолжительность : 2 ч. 10 м.
Вид битрейта : Переменный
Битрейт : 3469 Кбит/сек / 1510 Кбит/сек
Каналы : 8 каналов / 6 каналов
Расположение каналов : Front: L C R, Side: L R, Back: L R, LFE / Front: L C R, Side: L R, LFE
Частота : 48,0 КГц
Битовая глубина : 24 бит
Метод сжатия : Без потерь / Lossy
Заголовок : DTS-HD MA 7.1 / 5228 kbps / Original
Язык : English
Default : Нет
Forced : Нет
Аудио #3
Идентификатор : 4
Формат : AC-3
Формат/Информация : Audio Coding 3
Профиль формата : Dolby Digital
Расширение режима : CM (complete main)
Параметр Endianness формата : Big
Идентификатор кодека : A_AC3
Продолжительность : 2 ч. 10 м.
Вид битрейта : Постоянный
Битрейт : 320 Кбит/сек
Каналы : 2 канала
Расположение каналов : Front: L R
Частота : 48,0 КГц
Битовая глубина : 16 бит
Метод сжатия : С потерями
Размер потока : 300 Мбайт (1%)
Заголовок : AC3 2.0 / 320 kbps / Deive
Язык : English
Default : Нет
Forced : Нет
Аудио #4
Идентификатор : 5
Формат : AC-3
Формат/Информация : Audio Coding 3
Расширение режима : CM (complete main)
Параметр Endianness формата : Big
Идентификатор кодека : A_AC3
Продолжительность : 2 ч. 10 м.
Вид битрейта : Постоянный
Битрейт : 192 Кбит/сек
Каналы : 2 канала
Расположение каналов : Front: L R
Частота : 48,0 КГц
Битовая глубина : 16 бит
Метод сжатия : С потерями
Размер потока : 180 Мбайт (1%)
Заголовок : AC3 2.0 / 192 kbps / Commentary
Язык : English
Default : Нет
Forced : Нет
Текст #1
Идентификатор : 6
Формат : UTF-8
Идентификатор кодека : S_TEXT/UTF8
Идентификатор кодека/Информация : UTF-8 Plain Text
Заголовок : Forced
Язык : Russian
Default : Да
Forced : Нет
Текст #2
Идентификатор : 7
Формат : UTF-8
Идентификатор кодека : S_TEXT/UTF8
Идентификатор кодека/Информация : UTF-8 Plain Text
Заголовок : Full
Язык : Russian
Default : Нет
Forced : Нет
Текст #3
Идентификатор : 8
Формат : UTF-8
Идентификатор кодека : S_TEXT/UTF8
Идентификатор кодека/Информация : UTF-8 Plain Text
Заголовок : Full
Язык : English
Default : Нет
Forced : Нет
Меню
00:00:00.000 : en:Chapter 1
00:03:54.734 : en:Chapter 2
00:07:49.760 : en:Chapter 3
00:14:28.033 : en:Chapter 4
00:20:43.533 : en:Chapter 5
00:26:18.159 : en:Chapter 6
00:28:45.974 : en:Chapter 7
00:37:46.472 : en:Chapter 8
00:42:07.608 : en:Chapter 9
00:50:33.613 : en:Chapter 10
00:56:00.482 : en:Chapter 11
01:05:09.864 : en:Chapter 12
01:12:09.325 : en:Chapter 13
01:18:21.029 : en:Chapter 14
01:25:07.143 : en:Chapter 15
01:32:55.653 : en:Chapter 16
01:36:38.083 : en:Chapter 17
01:39:49.441 : en:Chapter 18
01:49:47.872 : en:Chapter 19
01:55:41.684 : en:Chapter 20
02:02:22.752 : en:Chapter 21

Скриншоты

-- --
Яндекс.Метрика
Рейтинг@Mail.ru