Горные акулы / Avalanche Sharks (2013) HDRip [VO]

 

Создавать темы 16-Июл-2014 16:17

-Горные акулы / Avalanche Sharks (2013) HDRip- Год выпуска: 2013
Страна: Канада
Жанр: Ужасы, Фантастика, Боевик
Описание фильма:
Отпуск в горах: катание на сноуборде, пиво и девочки. Что может быть лучше? Однако неожиданно происходит то, что портит отдых. Сошедшая с гор лавина пробуждает ужасного доисторического хищника — Снежную акулу. Очнувшемуся после многовекового сна чудовищу приходит по вкусу человеческая плоть и хищник превращает горнолыжный курорт в кровавую баню. Местный шериф вместе с компанией сноубордистов рашает дать отпор монстру…
Режиссер: Скотт Вилер
Продюсер: Деви Сингх, Стэн Спрай, Эрик Скотт Вудс
Актеры: Александр Менделюк, Кейт Наута, Бенжамин Истадэй, Эрик Скотт Вудс, Келли Кентвелл, Ричард Глисон, Джина Холден, Джек Коллисон, Николь Хелен
Продолжительность: 01:22:05
Качество видео: HDRip
Перевод: Одноголосый закадровый
Автор перевода: den904
Язык субтитров: Отсутствуют Дата мировой премьеры: 1 июля 2013
Видеокодек: Xvid
Битрейт видео: ~2098 Kbit/s
Размер кадра: 720 x 400
Аудио #1: AC3, 48,0 КHz, 2.0, 192 Kbit/s (Русский одноголосый)
Aудио #2: AC3, 48,0 КHz, 2.0, 224 Kbit/s (Оригинальный английский)

MediaInfo

Общее
Полное имя : D:\Торренты\РЕЛИЗЫ\Горные акулы.2013.HDRip.avi
Формат : AVI
Формат/Информация : Audio Video Interleave
Размер файла : 1,45 Гбайт
Продолжительность : 1 ч. 22 м.
Общий поток : 2528 Кбит/сек
Программа кодирования : VirtualDubMod 1.5.10.3 (build 2550/release)
Библиотека кодирования : VirtualDubMod build 2550/release
Видео
Идентификатор : 0
Формат : MPEG-4 Visual
Профиль формата : Advanced [email protected]
Параметр BVOP формата : 1
Параметр QPel формата : Нет
Параметр GMC формата : Без точки перехода
Параметр матрицы формата : Выборочная
Идентификатор кодека : XVID
Идентификатор кодека/Подсказка : XviD
Продолжительность : 1 ч. 22 м.
Битрейт : 2098 Кбит/сек
Ширина : 720 пикс.
Высота : 400 пикс.
Соотношение сторон : 16:9
Частота кадров : 23,976 кадр/сек
Цветовое пространство : YUV
Подвыборка цветности : 4:2:0
Битовая глубина : 8 бит
Тип развёртки : Прогрессивная
Метод сжатия : С потерями
Бит/(Пиксели*Кадры) : 0.304
Размер потока : 1,20 Гбайт (83%)
Библиотека кодирования : XviD 73
Аудио #1
Идентификатор : 1
Формат : AC-3
Формат/Информация : Audio Coding 3
Расширение режима : CM (complete main)
Идентификатор кодека : 2000
Продолжительность : 1 ч. 22 м.
Вид битрейта : Постоянный
Битрейт : 192 Кбит/сек
Каналы : 2 канала
Расположение каналов : Front: L R
Частота : 48,0 КГц
Битовая глубина : 16 бит
Метод сжатия : С потерями
Размер потока : 113 Мбайт (8%)
Выравнивание : Разделение по промежуткам
Продолжительность промежутка : 42 мс. (1,00 видеокадр)
Время предзагрузки промежутка : 500 ms
Аудио #2
Идентификатор : 2
Формат : AC-3
Формат/Информация : Audio Coding 3
Расширение режима : CM (complete main)
Идентификатор кодека : 2000
Продолжительность : 1 ч. 22 м.
Вид битрейта : Постоянный
Битрейт : 224 Кбит/сек
Каналы : 2 канала
Расположение каналов : Front: L R
Частота : 48,0 КГц
Битовая глубина : 16 бит
Метод сжатия : С потерями
Размер потока : 132 Мбайт (9%)
Выравнивание : Разделение по промежуткам
Продолжительность промежутка : 42 мс. (1,00 видеокадр)
Время предзагрузки промежутка : 500 ms
Скриншоты:
Время раздачи: 24/7 по возможности
Яндекс.Метрика
Рейтинг@Mail.ru