[ Сегодня на трекере фрилич! Идет свободное скачивание без начисления Download ]

Странный цвет слез твоего тела / L etrange couleur des larmes de ton corps (2013) DVDRip

 

Создавать темы 15-Июл-2014 08:13

-Странный цвет слез твоего тела / L etrange couleur des larmes de ton corps (2013) DVDRip- Год выпуска: 2013
Производство: Бельгия, Франция, Люксембург
Жанр: Триллер, детектив
Режиссер: Элен Катте, Брюно Форзани
Актеры: Клаус Тангэ, Биргит Йю, Ханс де Мунтер, Анна Д’Аннунцио, Жан-Мишель Вовк, Манон Бюшо, Ромейн Ролл
Описание фильма:
Женщина пропадает без вести. Её муж исследует странные обстоятельства этого исчезновения. Она ушла от него? Или умерла? Он решает выяснить это, и с этого момента его жизнь наполняется обилием кошмара и насилия…
Перевод: Любительский двухголосый [DeadSno & den904]


Продолжительность: 01:37:35
Качество видео: DVDRip
Видеокодек: DivX 5
Битрейт видео: ~1988 Кбит/с
Размер кадра: 720x304
Аудиокодек: AC3 2 ch
Битрейт аудио: 160 Кбит/с

MediaInfo:

Общее
Полное имя : C:\NNM\Странный цвет слез твоего тела\Strannyj cvet 2013 DVDRip.avi
Формат : AVI
Формат/Информация : Audio Video Interleave
Профиль формата : OpenDML
Размер файла : 1,47 Гбайт
Продолжительность : 1 ч. 37 м.
Общий поток : 2160 Кбит/сек
Программа кодирования : Lavf55.43.100
Видео
Идентификатор : 0
Формат : MPEG-4 Visual
Профиль формата : Advanced [email protected]
Параметр BVOP формата : 1
Параметр QPel формата : Нет
Параметр GMC формата : Без точки перехода
Параметр матрицы формата : Default (MPEG)
Идентификатор кодека : DX50
Идентификатор кодека/Подсказка : DivX 5
Продолжительность : 1 ч. 37 м.
Битрейт : 1988 Кбит/сек
Ширина : 720 пикселей
Высота : 304 пикселя
Соотношение сторон : 2,35:1
Частота кадров : 25,000 кадров/сек
Цветовое пространство : YUV
Субдискретизация насыщенности : 4:2:0
Битовая глубина : 8 бит
Тип развёртки : Прогрессивная
Метод сжатия : С потерями
Бит/(Пиксели*Кадры) : 0.363
Размер потока : 1,35 Гбайт (92%)
Библиотека кодирования : XviD 1.2.1 (UTC 2008-12-04)
Аудио
Идентификатор : 1
Формат : AC-3
Формат/Информация : Audio Coding 3
Расширение режима : CM (complete main)
Идентификатор кодека : 2000
Продолжительность : 1 ч. 37 м.
Вид битрейта : Постоянный
Битрейт : 160 Кбит/сек
Каналы : 2 канала
Расположение каналов : Front: L R
Частота : 48,0 КГц
Битовая глубина : 16 бит
Метод сжатия : С потерями
Размер потока : 112 Мбайт (7%)
Выравнивание : Соединение по промежуткам
Продолжительность промежутка : 32 мс. (0,80 видеокадр)
Скриншоты:Время раздачи: Круглосуточно до 10 скачавших
Яндекс.Метрика
Рейтинг@Mail.ru