BBC.Как устроена природа / BBC. How Nature Works [01-04 из 04] (2012) BDRip 1080p от Freeisland

 

Создавать темы 25-Окт-2013 16:46

BBC. Как устроена природа
How Nature Works-- Год выпуска: 2012
Страна: Великобритания , BBC
Жанр: Документальный, природа, животные, флора, фауна
Продолжительность: 4 x ~ 00:42:00
Перевод: Профессиональный (дублированный)
Субтитры: Нет
Режиссер: Тим Мартин
Описание: На планете Земля обитает более десяти миллионов биологических видов. Но в одиночку им выжить не удастся.
Все в жизни взаимосвязано. 4-х серийный документальный фильм от канала BBC продемонстрирует нам удивительный мир, который скрыт от наших глаз,
и Вы станете свидетелем неожиданных отношений, которые соединяют миллионы растений и животных.

Качество: BDRip 1080р
Формат: MKV
Видео кодек: AVC
Аудио кодеk: AC3
Видео: 1920x1080 (16:9), 25.000 fps, AVC, 5 790 - 5 826 Kbps
Аудио #1: AC3, 192 Kbps, 48.0 KHz, 2 ch Russian (Видеофильм ТВ)
Аудио #2: AC3, 448 Kbps, 48.0 KHz, 6 ch English

Содержание

1. Джунгли / Jungle:
В этой серии мы расскажем о джунглях, где жизнь гигантской бертолетии зависит от крохотных агути. А необычные отношения между видами создали больше существ, чем в любом другом месте земли.
2. Пастбище / Grassland:
В этой серии мы расскажем о пастбищах, на которых жизнь обезьяны зависит от жирафа, а необычные взаимоотношения позволяют удивительным животным благоденствовать вопреки всему.
3. Сезонные леса / Seasonal Forest:
Сезонные леса опоясывают Северное полушарие и покрывают четверть суши нашей Планеты. Они вырабатывают 9% потребляемого нами кислорода, но чтобы эта важная экосистема могла функционировать животные и растения должны преодолеть ряд испытаний.
4. Водный мир / Waterworlds:
Почему тигру необходим краб? Зачем выдре нужна улитка? И почему акуле не выжить без губки? На таких отношениях строится жизнь в наших водных мирах.
--

МедиаИнфо

General
Complete name : Jungle.mkv
Format : Matroska
File size : 2.18 GiB
Duration : 48mn 16s
Overall bit rate : 6 468 Kbps
Encoded date : UTC 2013-10-25 06:14:33
Writing application : mkvmerge v6.5.0 ('Isn't she lovely') built on Oct 20 2013 12:50:05
Writing library : libebml v1.3.0 + libmatroska v1.4.1
Video
ID : 1
Format : AVC
Format/Info : Advanced Video Codec
Format profile : [email protected]
Format settings, CABAC : Yes
Format settings, ReFrames : 4 frames
Muxing mode : Container [email protected]
Codec ID : V_MPEG4/ISO/AVC
Duration : 48mn 16s
Bit rate : 5 826 Kbps
Width : 1 920 pixels
Height : 1 080 pixels
Display aspect ratio : 16:9
Frame rate : 25.000 fps
Color space : YUV
Chroma subsampling : 4:2:0
Bit depth : 8 bits
Scan type : Progressive
Bits/(Pixel*Frame) : 0.112
Stream size : 1.92 GiB (88%)
Writing library : x264 core 138 r2358 9e941d1
Encoding settings : cabac=1 / ref=4 / deblock=1:-1:-1 / analyse=0x3:0x133 / me=umh / subme=11 / psy=1 / psy_rd=1.00:0.00 / mixed_ref=1 / me_range=32 / chroma_me=1 / trellis=2 / 8x8dct=1 / cqm=0 / deadzone=21,11 / fast_pskip=0 / chroma_qp_offset=-2 / threads=6 / lookahead_threads=1 / sliced_threads=0 / nr=0 / decimate=1 / interlaced=0 / bluray_compat=0 / constrained_intra=0 / bframes=8 / b_pyramid=2 / b_adapt=2 / b_bias=0 / direct=3 / weightb=1 / open_gop=0 / weightp=2 / keyint=250 / keyint_min=25 / scenecut=40 / intra_refresh=0 / rc_lookahead=40 / rc=2pass / mbtree=0 / bitrate=5826 / ratetol=2.0 / qcomp=1.00 / qpmin=0 / qpmax=51 / qpstep=4 / cplxblur=20.0 / qblur=0.5 / vbv_maxrate=50000 / vbv_bufsize=62500 / nal_hrd=none / ip_ratio=1.40 / pb_ratio=1.30 / aq=1:1.00
Color primaries : BT.709-5, BT.1361, IEC 61966-2-4, SMPTE RP177
Transfer characteristics : BT.709-5, BT.1361
Matrix coefficients : BT.709-5, BT.1361, IEC 61966-2-4 709, SMPTE RP177
Audio #1
ID : 2
Format : AC-3
Format/Info : Audio Coding 3
Format profile : Dolby Digital
Mode extension : CM (complete main)
Codec ID : A_AC3
Duration : 48mn 16s
Bit rate mode : Constant
Bit rate : 192 Kbps
Channel(s) : 2 channels
Channel positions : Front: L R
Sampling rate : 48.0 KHz
Bit depth : 16 bits
Stream size : 66.3 MiB (3%)
Title : Дубляж
Language : Russian
Audio #2
ID : 3
Format : AC-3
Format/Info : Audio Coding 3
Mode extension : CM (complete main)
Codec ID : A_AC3
Duration : 48mn 16s
Bit rate mode : Constant
Bit rate : 448 Kbps
Channel(s) : 6 channels
Channel positions : Front: L C R, Side: L R, LFE
Sampling rate : 48.0 KHz
Bit depth : 16 bits
Stream size : 155 MiB (7%)
Menu
00:00:00.000 : en:00:00:00.000
00:08:58.000 : en:00:08:58.000
00:20:41.000 : en:00:20:41.000
00:27:42.000 : en:00:27:42.000
00:36:43.600 : en:00:36:43.600

Скриншоты

Релиз группы:


Последний раз редактировалось: ksd66 (2013-10-25 17:42), всего редактировалось 1 раз
Яндекс.Метрика
Рейтинг@Mail.ru