Непригодные для свиданий / Undateable / Crossbones (Сезон 1 / серии: 11 из 13) (Скотт Эллис / Scott Ellis, ...) [2014 г., комедия, ..., WEB-DL 720р] MVO (BaibaKo) + Original (Eng) [обновляемая]

 

Создавать темы 12-Июл-2014 05:26

Непригодные для свиданий
Undateable
- Страна: США
Год выпуска: 2014
Жанр: комедия, ...-Релиз:
Перевод: Многоголосый закадровый, профессиональный
Оригинальный аудиопоток: английский-Перевод: Татьяна Ланцетова
Озвучка: Юлия Котурбаш, Дмитрий Нежельский, Александр Фурман и Денис Толяренко
Монтаж: Павел Дежин
Обложка: Антон Максимов-Премьера (мир): 29 мая 2014-Режиссер: Скотт Эллис / Scott Ellis, Дэвид Трейнер / David Trainer, Тед Уасс / Ted Wass, ...
В главных ролях: Крис Д’Илайа, Брент Морин, Бьянка Кэйлик, Рик Глассман, Рон Фанчес, Брига Хилэн, Хантер Элизабет, Дэвид Финн, Эрин Бодин, Малиабет Джонсон, ...-Описание фильма:
Комедийный сериал расскажет о группе друзей, у которых все не ладится с личной жизнью. Можно даже сказать, что коллеги по несчастью уже согласились со своей участью и даже не предпринимают никаких попыток, а если таковые иногда и случаются, то заведомо их ожидает крах... Но вот однажды к одному из этих парней, Джастину, приезжает профессиональный бездельник и повеса Дэнни Биман. Гость оказывается в окружении чудаков и неудачников, жаждущих романтики. Он начинает учить ребят искусству обольщения.-Сезон: 1
Серии: 11 из 13 серий
Продолжительность: ~ 00:21:00 серия-Качество видео: WEB-DL 720р
Контейнер: MKV
Видео кодек: AVC [email protected]
Аудио кодек: AC-3
Видео: AVC at 3965 Кбит/сек: 1280 x 718 (1.783) at 23.976 fps
Аудио Rus: AC-3 at 384 Кбит/сек: 6 каналов, 48,0 КГц |BaibaKo|
Аудио Eng: AC-3 at 384 Кбит/сек: 6 каналов, 48,0 КГц |Original|
Cубтитры: отсутствуют
- -

Список серий:

  • Пилот (Pilot)
  • Брючные друзья (Pants Buddies)
  • Третий лишний (Three's a Crowd)
  • Разъединитель (The Switch)
  • Герой - это я (My Hero Is Me)
  • Вожак стаи (Leader of the Pack)
  • Фишка (The Move)
  • Эффект Джулиуса (The Julius Effect)
  • Низко висящий плод (Low Hanging Fruit)
  • Отцовские тараканы (Daddy Issues)
  • Да будет свет (Let There Be Light)


  • (Danny's Boys)

  • (Go for Gary)
-

MediaInfo:

Общее
Уникальный идентификатор                 : 181434084649034865219716053468791456137 (0x887EEF04112288F59B4E9433FEAC4189)
Полное имя                               : E:\_Сериалы\_Сериалы\Непригодные для свиданий\Undateable.s01.BaibaKo\Undateable.s01e01.HD720p.WEB-DL.Rus-Eng.BaibaKo.tv.mkv
Формат                                   : Matroska
Версия формата                           : Version 4 / Version 2
Размер файла                             : 745 Мбайт
Продолжительность                        : 21 м.
Общий поток                              : 4829 Кбит/сек
Дата кодирования                         : UTC 2014-06-01 20:32:39
Программа кодирования                    : mkvmerge v6.7.0 ('Back to the Ground') 64bit built on Jan  8 2014 15:10:52
Библиотека кодирования                   : libebml v1.3.0 + libmatroska v1.4.1
Видео
Идентификатор                            : 1
Формат                                   : AVC
Формат/Информация                        : Advanced Video Codec
Профиль формата                          : [email protected]
Параметр CABAC формата                   : Нет
Параметр ReFrames формата                : 2 кадра
Идентификатор кодека                     : V_MPEG4/ISO/AVC
Продолжительность                        : 21 м.
Битрейт                                  : 3965 Кбит/сек
Ширина                                   : 1280 пикселей
Высота                                   : 718 пикселей
Соотношение сторон                       : 16:9
Режим частоты кадров                     : Постоянный
Частота кадров                           : 23,976 кадра/сек
Цветовое пространство                    : YUV
Субдискретизация насыщенности            : 4:2:0
Битовая глубина                          : 8 бит
Тип развёртки                            : Прогрессивная
Бит/(Пиксели*Кадры)                      : 0.180
Размер потока                            : 611 Мбайт (82%)
Язык                                     : English
Default                                  : Да
Forced                                   : Нет
Основные цвета                           : BT.709
Характеристики трансфера                 : BT.709
Коэффициенты матрицы                     : BT.709
Аудио #1
Идентификатор                            : 2
Формат                                   : AC-3
Формат/Информация                        : Audio Coding 3
Расширение режима                        : CM (complete main)
Параметр Endianness формата              : Big
Идентификатор кодека                     : A_AC3
Продолжительность                        : 21 м.
Вид битрейта                             : Постоянный
Битрейт                                  : 384 Кбит/сек
Каналы                                   : 6 каналов
Расположение каналов                     : Front: L C R, Side: L R, LFE
Частота                                  : 48,0 КГц
Битовая глубина                          : 16 бит
Метод сжатия                             : С потерями
Размер потока                            : 59,2 Мбайт (8%)
Язык                                     : Russian
Default                                  : Да
Forced                                   : Нет
Аудио #2
Идентификатор                            : 3
Формат                                   : AC-3
Формат/Информация                        : Audio Coding 3
Расширение режима                        : CM (complete main)
Параметр Endianness формата              : Big
Идентификатор кодека                     : A_AC3
Продолжительность                        : 21 м.
Вид битрейта                             : Постоянный
Битрейт                                  : 384 Кбит/сек
Каналы                                   : 6 каналов
Расположение каналов                     : Front: L C R, Side: L R, LFE
Частота                                  : 48,0 КГц
Битовая глубина                          : 16 бит
Метод сжатия                             : С потерями
Размер потока                            : 59,2 Мбайт (8%)
Язык                                     : English
Default                                  : Нет
Forced                                   : Нет
-

Скриншот c названием фильма

-Скриншоты:
-

ЕщЕ:

-

Внимание! Раздача ведётся путём добавления новых серий!

Внимание! Раздача ведётся путём добавления новых серий; при каждом добавлении создётся новый торрент. Чтобы начать докачку новой серии, пользователям необходимо сделать следующее:
(1) остановить скачивание,
(2) удалить старый торрент у себя из клиента (старые серии удалять не надо),
(3) скачать новый торрент и запустить его у себя в клиенте вместо старого, при этом указать клиенту путь в старую папку куда и должно происходить скачивание новых серий.
Ваш клиент при этом должен произвести хеширование (проверку) старой папки (если не производит сам - помогите ему сделать это), и будет докачивать только те серии которых у вас ещё нет. Старые серии при этом не удаляются, а продолжают раздаваться!
Eсли вы уже удалили старые серии, то предотвратить повторную закачку старых серий можно, отжав галочку в соответствующих местах при запуске нового торрента.
-Добавлена одиннадцатая серия первого сезона
Яндекс.Метрика
Рейтинг@Mail.ru