[ Сегодня на трекере фрилич! Идет свободное скачивание без начисления Download ]

Need for Speed: Жажда скорости / Need for Speed (Скотт Во / Scott Waugh) [2014 г., Боевик, Триллер, Драма, WEB-Rip] Dub [звук с TS]

 

Создавать темы 12-Июл-2014 01:59

-Need for Speed: Жажда скорости / Need for Speed--
Производство: США, Bandito Brothers, DreamWorks SKG, Electronic Arts, Reliance Entertainment
Год выпуска: 2014 г.
Жанр: Боевик, Триллер, Драма
Продолжительность: 02:05:24
Мировая премьера: 12 марта 2014
Российская премьера: 13 марта 2014, «WDSSPR»
Дата выхода DVD: 10 июня 2014, «Уолт Дисней Компани СНГ»
Перевод: Профессиональный (полное дублирование) [звук с TS]
Режиссер: Скотт Во / Scott Waugh-В ролях:
Дакота Джонсон, Скотт Мескади, Ник Чинланд, Майкл Китон, Рамон Родригес, Доминик Купер, Имоджен Путс, Рами Малек, Сэр Маджор, Аарон Пол-Описание:
История Тоби Маршалла, гениального автомеханика, чьей единственной отдушиной является участие в подпольных гонках. Чтобы сохранить семейную мастерскую, Тоби вынужден взять в партнеры богатого и заносчивого бывшего гонщика NASCAR Дино Брюстера. Когда дела Тоби наконец-то начинают идти в гору, Дино подставляет партнера, и Тоби обвиняют в преступлении, которого он не совершал. Спустя два года Тоби выходит из тюрьмы с мыслью о мести. Чтобы достичь своей цели, ему придется совершить невозможное и доказать, что даже в мире броских суперкаров самый невзрачный гонщик может финишировать первым.
-
Качество видео: WEB-Rip
Контейнер: AVI
Видео кодек: XviD
Аудио кодек: MP3
Видео: 720x304; 1424 Kbps; 30,000 fps; 0.217 Bit/Pixel
Аудио: 128 kbps; 2 ch; 44.1 kHz

Media Info

Формат : AVI
Формат/Информация : Audio Video Interleave
Размер файла : 1,37 Гбайт
Продолжительность : 2 ч. 5 м.
Общий поток : 1564 Кбит/сек
Программа кодирования : VirtualDubMod 1.5.10.3 | www.virtualdub-fr.org || (build 2550/release)
Библиотека кодирования : VirtualDubMod build 2550/release
Видео
Идентификатор : 0
Формат : MPEG-4 Visual
Профиль формата : Advanced [email protected]
Параметр BVOP формата : 2
Параметр QPel формата : Нет
Параметр GMC формата : Без точки перехода
Параметр матрицы формата : Default (MPEG)
Идентификатор кодека : XVID
Идентификатор кодека/Подсказка : XviD
Продолжительность : 2 ч. 5 м.
Битрейт : 1424 Кбит/сек
Ширина : 720 пикселей
Высота : 304 пикселя
Соотношение сторон : 2,35:1
Частота кадров : 30,000 кадров/сек
Цветовое пространство : YUV
Субдискретизация насыщенности : 4:2:0
Битовая глубина : 8 бит
Тип развёртки : Прогрессивная
Метод сжатия : С потерями
Бит/(Пиксели*Кадры) : 0.217
Размер потока : 1,25 Гбайт (91%)
Библиотека кодирования : XviD 1.2.1 (UTC 2008-12-04)
Аудио
Идентификатор : 1
Формат : MPEG Audio
Версия формата : Version 1
Профиль формата : Layer 3
Идентификатор кодека : 55
Идентификатор кодека/Подсказка : MP3
Продолжительность : 2 ч. 5 м.
Вид битрейта : Постоянный
Битрейт : 128 Кбит/сек
Каналы : 2 канала
Частота : 44,1 КГц
Метод сжатия : С потерями
Размер потока : 115 Мбайт (8%)
Выравнивание : Разделение по промежуткам
Продолжительность промежутка : 33 мс. (1,00 видеокадр)
Время предзагрузки промежутка : 500 мс.
Яндекс.Метрика
Рейтинг@Mail.ru