[ Сегодня на трекере фрилич! Идет свободное скачивание без начисления Download ]

Обезьянья лапа / Тhe Monkey's Paw (Бретт Симмонс / Brett Simmons) [2013 г., Ужасы, триллер, экранизация, HDRip] DVO (DeadSno & den904)

 

Создавать темы 12-Июл-2014 01:58

-Обезьянья лапа / Тhe Monkey's Paw-«One Wish. A Thousand Regrets»- Производство: США, Jay-X Entertainment, TMP Films
Год выпуска: 2013 г.
Жанр: Ужасы, триллер, экранизация
Продолжительность: 01:28:29
Мировая премьера: 8 октября 2013
Перевод: Любительский (двухголосый, закадровый) [DeadSno & den904]-Режиссер: Бретт Симмонс / Brett Simmons
В ролях: С.Дж. Томасон, Стивен Лэнг, Мишель Пирс, Корбин Блю, Дэниэл Хью Келли, Чарльз С. Даттон, Товия Дон, Джессика Гарви, Энди Фавро, Джеймс Минор III, Грэйсон Берри, Сабрина Дженнарино, Джон Льюис, Аделла Готье, Джейсон Стенли-Описание: Еще одна интерпретация на тему исполнения трех желаний и их последствий. В роли феи выступает обезьянья лапка. Есть прекрасная возможность испытать те чувства, которые мы испытываем, когда исполняются наши заветные желания. Вот что бы вы хотели? Есть у вас мечта? А никогда не думали над тем, к каким последствиям может привести легкое исполнение желаний? И еще: кто может их исполнить? Фея? Волшебная палочка? Волшебник? Президент страны?.. Ну - последнее точно фантастика. Тут роль «феи» исполняет обезьянья лапа, которая интригует зрителя на протяжении всего просмотра. Последствия исполнения желаний оказываются неожиданными. Узнав о них, можно извлечь массу уроков... Экранизация по произведению: В.В. Джейкобс.-Качество видео: HDRip
Контейнер: AVI
Видео кодек: XviD
Аудио кодек: AC3
Видео: 720x400 (1.80:1), 23.976 fps, XviD build 50 ~1828 kbps avg, 0.26 bit/pixel
Аудио: 48 kHz, AC3 Dolby Digital, 3/2 (L,C,R,l,r) + LFE ch, ~384 kbps
Cубтитры: отсутствуют

Media Info

General
Complete name : C:\Users\Ivan\Desktop\The.Monkey's.Paw.HDRip.avi
Format : AVI
Format/Info : Audio Video Interleave
File size : 1.37 GiB
Duration : 1h 28mn
Overall bit rate : 2 222 Kbps
Movie name : Обезьянья лапа / The Monkey's Paw
Director : LPPI
Writing application : VirtualDubMod 1.5.10.3 | www.virtualdub-fr.org || (build 2550/release)
Video
ID : 0
Format : MPEG-4 Visual
Format profile : Advanced [email protected]
Format settings, BVOP : 2
Format settings, QPel : No
Format settings, GMC : No warppoints
Format settings, Matrix : Default (MPEG)
Codec ID : XVID
Codec ID/Hint : XviD
Duration : 1h 28mn
Bit rate : 1 829 Kbps
Width : 720 pixels
Height : 400 pixels
Display aspect ratio : 16:9
Frame rate : 23.976 fps
Color space : YUV
Chroma subsampling : 4:2:0
Bit depth : 8 bits
Scan type : Progressive
Compression mode : Lossy
Bits/(Pixel*Frame) : 0.265
Stream size : 1.13 GiB (82%)
Writing library : XviD 1.2.1 (UTC 2008-12-04)
Audio
ID : 1
Format : AC-3
Format/Info : Audio Coding 3
Mode extension : CM (complete main)
Format settings, Endianness : Big
Codec ID : 2000
Duration : 1h 28mn
Bit rate mode : Constant
Bit rate : 384 Kbps
Channel(s) : 6 channels
Channel positions : Front: L C R, Side: L R, LFE
Sampling rate : 48.0 KHz
Bit depth : 16 bits
Compression mode : Lossy
Stream size : 243 MiB (17%)
Alignment : Split accross interleaves
Interleave, duration : 42 ms (1.00 video frame)
Interleave, preload duration : 500 ms

Скриншоты

Яндекс.Метрика
Рейтинг@Mail.ru