Тепловой удар / Heatstroke (2013) WEB-DLRip [VO]

 

Создавать темы 11-Июл-2014 07:24

-Тепловой удар / Heatstroke (2013) WEB-DLRip- Год выпуска: 2013
Производство: США, Bold Films
Жанр: Триллер-Режиссер: Эвелин Пурселл
Актеры: Стивен Дорфф, Светлана Меткина, Андреа Роукс, Петер Стормаре, Мэйси Уильямс-Описание фильма:
Отец со своей подругой и дочерью от первого брака, приезжают в Африку на работу по наблюдению за гиенами. Его убивают браконьеры, и девочка (свидетель преступления) вынуждена убегать с женщиной, которую недолюбливала и ревновала к отцу.-Перевод: Любительский одноголосый [Xixidok]
Субтитры: Отсутствуют- -Продолжительность: 01:31:31
Качество видео: WEB-DLRip-Видеокодек: XviD
Битрейт видео: ~1933 Кбит/с
Размер кадра: 720x304
Аудиокодек: MP3 2 ch
Битрейт аудио: 192 Кбит/с-

MediaInfo:

Общее
Полное имя : C:\Тепловой удар\Teplovoj udar 2013 WEB-DLRip.avi
Формат : AVI
Формат/Информация : Audio Video Interleave
Размер файла : 1,36 Гбайт
Продолжительность : 1 ч. 31 м.
Общий поток : 2135 Кбит/сек
Программа кодирования : VirtualDubMod 1.5.10.3
Библиотека кодирования : VirtualDubMod build 2550/release
Видео
Идентификатор : 0
Формат : MPEG-4 Visual
Профиль формата : Advanced [email protected]
Параметр BVOP формата : 1
Параметр QPel формата : Нет
Параметр GMC формата : Без точки перехода
Параметр матрицы формата : Выборочная
Идентификатор кодека : XVID
Идентификатор кодека/Подсказка : XviD
Продолжительность : 1 ч. 31 м.
Битрейт : 1933 Кбит/сек
Ширина : 720 пикселей
Высота : 304 пикселя
Соотношение сторон : 2,35:1
Частота кадров : 23,976 кадра/сек
Цветовое пространство : YUV
Субдискретизация насыщенности : 4:2:0
Битовая глубина : 8 бит
Тип развёртки : Прогрессивная
Метод сжатия : С потерями
Бит/(Пиксели*Кадры) : 0.368
Размер потока : 1,24 Гбайт (91%)
Библиотека кодирования : XviD 1.2.1 (UTC 2008-12-04)
Аудио
Идентификатор : 1
Формат : MPEG Audio
Версия формата : Version 1
Профиль формата : Layer 3
Идентификатор кодека : 55
Идентификатор кодека/Подсказка : MP3
Продолжительность : 1 ч. 31 м.
Вид битрейта : Постоянный
Битрейт : 192 Кбит/сек
Каналы : 2 канала
Частота : 44,1 КГц
Метод сжатия : С потерями
Размер потока : 126 Мбайт (9%)
Выравнивание : Разделение по промежуткам
Продолжительность промежутка : 42 мс. (1,00 видеокадр)
Время предзагрузки промежутка : 500 мс.

Скриншоты

Яндекс.Метрика
Рейтинг@Mail.ru