Заградотряд: Соло на минном поле (Валентин Донсков) [2009 г., драма, военный, DVD9]

 

Создавать темы 25-Окт-2013 12:28

Заградотряд: Соло на минном поле Год выпуска: 2009
Страна: Россия
Жанр: драма, военный
Продолжительность: 02:28:08
Перевод: Не требуется
Режиссер: Валентин Донсков
В ролях: Евгений Ткачук, Григорий Добрыгин, Андрей Смелов, Павел Яскевич, Андрей Гусев, Равиль Султанов, Игорь Теплов, Антон Эльдаров, Даниил Воробьев, Анатолий Кот...
Описание: Фильм повествует о трагической судьбе молодого разведчика Павла Потемкина, судьба которого неожиданно меняется и его зачисляют бойцом заградотряда, где Пашка формулирует понятие заградотряда.
Заградотряд — это те, кто загрождают собой других. Во время одного из сражений, отбивая одну атаку за другой, бойцы заградотряда узнают, что за линией фронта умирает брошенный на произвол судьбы детский дом… Жертвуя собой, задерживая немцев, взрываясь на минах, чтобы обозначить путь детям, гибнут один за другим бойцы заградотряда.

Доп. информация:

MediaInfo

General
Complete name                    : E:\Фильмы\Военные\Заградотряд Соло на минном поле\Zagradotryad_Solo_na _minnom_pole_DVD9\VTS_01_3.VOB
Format                           : MPEG-PS
File size                        : 1 024 MiB
Duration                         : 23mn 37s
Overall bit rate                 : 6 059 Kbps
Video
ID                               : 224 (0xE0)
Format                           : MPEG Video
Format version                   : Version 2
Format profile                   : [email protected]
Format settings, Matrix          : Default
Duration                         : 23mn 37s
Bit rate mode                    : Variable
Bit rate                         : 5 626 Kbps
Nominal bit rate                 : 9 000 Kbps
Width                            : 720 pixels
Height                           : 576 pixels
Display aspect ratio             : 4/3
Frame rate                       : 25.000 fps
Standard                         : PAL
Colorimetry                      : 4:2:0
Scan type                        : Interlaced
Scan order                       : Top Field First
Bits/(Pixel*Frame)               : 0.543
Stream size                      : 951 MiB (93%)
Audio
ID                               : 128 (0x80)
Format                           : AC-3
Format/Info                      : Audio Coding 3
Duration                         : 23mn 37s
Bit rate mode                    : Constant
Bit rate                         : 192 Kbps
Channel(s)                       : 2 channels
Channel positions                : L R
Sampling rate                    : 48.0 KHz
Video delay                      : -544ms
Stream size                      : 32.5 MiB (3%)
Menu
Format                           : DVD-Video
Качество: DVD9
Формат: DVD Video
Видео кодек: MPEG2
Аудио кодек: AC3
Видео: MPEG 2, 720x576 (4:3), 25.000 fps, 9 000 Kbps
Аудио: Русский, 48000Hz stereo, 2 ch, Dolby AC3, 192kbps

Скриншоты

Яндекс.Метрика
Рейтинг@Mail.ru