[ Сегодня на трекере фрилич! Идет свободное скачивание без начисления Download ]

(Heavy, Power, Progressive) 20th century masters The Millenium Collection. The Best Of Yngwie Malmsteen - 2007, FLAC (tracks+.cue), lossless

 

Создавать темы 10-Июл-2014 19:46

20th century masters The Millenium Collection. The Best Of Yngwie Malmsteen- Жанр: Heavy, Power, Progressive
Год выпуска диска: 2007
Производитель диска: Universal Records, UMG Recordings inc. 2007 # 2600709
Аудио кодек: FLAC
Тип рипа: tracks+.cue
Битрейт аудио: lossless
Продолжительность: 01:11:28
Источник: zzoomm (собственный рип)
Трэклист:
01. Black Star 4:51
02. Far Beyond The Sun 5:50
03. I'll See The Light Tonight 4:24
04. Soldier Without Faith 6:10
05. You Don't Remember, I'll Never Forget 4:29
06. Liar 4:07
07. Queen In Love 4:02
08. Trilogy Suite Op: 5 7:17
09. Hold On 5:12
10. Heaven Tonight 4:07
11. Deja Vu 4:16
12. Making Love 6:21

EAC

Exact Audio Copy V0.99 prebeta 5 from 4. May 2009
EAC extraction logfile from 16. May 2010, 17:02
Yngwie Malmsteen / The Best Of Yngwie Malmsteen
Used drive : PIONEER DVDRW DR-KD08HB Adapter: 1 ID: 0
Read mode : Secure
Utilize accurate stream : Yes
Defeat audio cache : Yes
Make use of C2 pointers : No
Read offset correction : 48
Overread into Lead-In and Lead-Out : No
Fill up missing offset samples with silence : Yes
Delete leading and trailing silent blocks : No
Null samples used in CRC calculations : Yes
Used interface : Native Win32 interface for Win NT & 2000
Gap handling : Appended to previous track
Used output format : User Defined Encoder
Selected bitrate : 768 kBit/s
Quality : High
Add ID3 tag : No
Command line compressor : C:\Program Files\Exact Audio Copy\FLAC\FLAC.EXE
Additional command line options : -8 -V -T "ARTIST=%a" -T "TITLE=%t" -T "ALBUM=%g" -T "DATE=%y" -T "TRACKNUMBER=%n" -T "GENRE=%m" -T "COMMENT=EAC FLAC -8" %s
TOC of the extracted CD
Track | Start | Length | Start sector | End sector
---------------------------------------------------------
1 | 0:00.00 | 4:53.54 | 0 | 22028
2 | 4:53.54 | 5:52.24 | 22029 | 48452
3 | 10:46.03 | 4:26.63 | 48453 | 68465
4 | 15:12.66 | 6:11.25 | 68466 | 96315
5 | 21:24.16 | 4:30.60 | 96316 | 116625
6 | 25:55.01 | 4:09.61 | 116626 | 135361
7 | 30:04.62 | 4:04.54 | 135362 | 153715
8 | 34:09.41 | 7:19.20 | 153716 | 186660
9 | 41:28.61 | 5:12.05 | 186661 | 210065
10 | 46:40.66 | 4:08.26 | 210066 | 228691
11 | 50:49.17 | 4:17.50 | 228692 | 248016
12 | 55:06.67 | 6:21.36 | 248017 | 276627
Track 1
Filename C:\Documents and Settings\dart.DART-B7964D8A38\Мои документы\Torrents\Раздачи\Ynwie Malmsteen\01. Yngwie Malmsteen - Black Star.wav
Pre-gap length 0:00:02.00
Peak level 87.2 %
Track quality 100.0 %
Test CRC 3AC17DEB
Copy CRC 3AC17DEB
Cannot be verified as accurate (confidence 5) [82BDCC3D], AccurateRip returned [D71D262D]
Copy OK
Track 2
Filename C:\Documents and Settings\dart.DART-B7964D8A38\Мои документы\Torrents\Раздачи\Ynwie Malmsteen\02. Yngwie Malmsteen - Far Beyond The Sun.wav
Pre-gap length 0:00:02.28
Peak level 86.6 %
Track quality 99.9 %
Test CRC 6BC04444
Copy CRC 6BC04444
Cannot be verified as accurate (confidence 5) [25960047], AccurateRip returned [8C4F91C7]
Copy OK
Track 3
Filename C:\Documents and Settings\dart.DART-B7964D8A38\Мои документы\Torrents\Раздачи\Ynwie Malmsteen\03. Yngwie Malmsteen - I'll See The Light, Tonight.wav
Pre-gap length 0:00:02.42
Peak level 99.4 %
Track quality 100.0 %
Test CRC 49A0F209
Copy CRC 49A0F209
Cannot be verified as accurate (confidence 5) [6A843381], AccurateRip returned [2D176DD9]
Copy OK
Track 4
Filename C:\Documents and Settings\dart.DART-B7964D8A38\Мои документы\Torrents\Раздачи\Ynwie Malmsteen\04. Yngwie Malmsteen - Soldier Without Faith.wav
Pre-gap length 0:00:02.44
Peak level 86.2 %
Track quality 100.0 %
Test CRC 617C1E37
Copy CRC 617C1E37
Cannot be verified as accurate (confidence 5) [DE81B89C], AccurateRip returned [D52C66A4]
Copy OK
Track 5
Filename C:\Documents and Settings\dart.DART-B7964D8A38\Мои документы\Torrents\Раздачи\Ynwie Malmsteen\05. Yngwie Malmsteen - You Don't Remember, I'll Never Forget.wav
Pre-gap length 0:00:01.43
Peak level 86.3 %
Track quality 100.0 %
Test CRC 6ECFE781
Copy CRC 6ECFE781
Cannot be verified as accurate (confidence 5) [2044ED9B], AccurateRip returned [52C25EC3]
Copy OK
Track 6
Filename C:\Documents and Settings\dart.DART-B7964D8A38\Мои документы\Torrents\Раздачи\Ynwie Malmsteen\06. Yngwie Malmsteen - Liar.wav
Pre-gap length 0:00:01.41
Peak level 99.0 %
Track quality 100.0 %
Test CRC 28DF2E39
Copy CRC 28DF2E39
Cannot be verified as accurate (confidence 5) [316B1BDC], AccurateRip returned [95ACD4A4]
Copy OK
Track 7
Filename C:\Documents and Settings\dart.DART-B7964D8A38\Мои документы\Torrents\Раздачи\Ynwie Malmsteen\07. Yngwie Malmsteen - Queen In Love.wav
Pre-gap length 0:00:02.49
Peak level 99.2 %
Track quality 99.9 %
Test CRC AE80439D
Copy CRC AE80439D
Cannot be verified as accurate (confidence 5) [3C187ECB], AccurateRip returned [8B8DDC5B]
Copy OK
Track 8
Filename C:\Documents and Settings\dart.DART-B7964D8A38\Мои документы\Torrents\Раздачи\Ynwie Malmsteen\08. Yngwie Malmsteen - Trilogy Suite OP-5.wav
Pre-gap length 0:00:02.45
Peak level 99.7 %
Track quality 100.0 %
Test CRC 4CCC628B
Copy CRC 4CCC628B
Cannot be verified as accurate (confidence 5) [08653863], AccurateRip returned [C5447FE3]
Copy OK
Track 9
Filename C:\Documents and Settings\dart.DART-B7964D8A38\Мои документы\Torrents\Раздачи\Ynwie Malmsteen\09. Yngwie Malmsteen - Hold On.wav
Pre-gap length 0:00:02.41
Peak level 95.8 %
Track quality 100.0 %
Test CRC CC41ED01
Copy CRC CC41ED01
Cannot be verified as accurate (confidence 5) [69A5597B], AccurateRip returned [2D4E6815]
Copy OK
Track 10
Filename C:\Documents and Settings\dart.DART-B7964D8A38\Мои документы\Torrents\Раздачи\Ynwie Malmsteen\10. Yngwie Malmsteen - Heaven Tonight.wav
Peak level 100.0 %
Track quality 100.0 %
Test CRC 6CE9E889
Copy CRC 6CE9E889
Cannot be verified as accurate (confidence 4) [2DF62FD2], AccurateRip returned [7B13AD0C]
Copy OK
Track 11
Filename C:\Documents and Settings\dart.DART-B7964D8A38\Мои документы\Torrents\Раздачи\Ynwie Malmsteen\11. Yngwie Malmsteen - Dйja Vu.wav
Pre-gap length 0:00:01.43
Peak level 100.0 %
Track quality 99.9 %
Test CRC 43D48B59
Copy CRC 43D48B59
Cannot be verified as accurate (confidence 5) [5CF47449], AccurateRip returned [26308331]
Copy OK
Track 12
Filename C:\Documents and Settings\dart.DART-B7964D8A38\Мои документы\Torrents\Раздачи\Ynwie Malmsteen\12. Yngwie Malmsteen - Making Love (extended guitar solo).wav
Pre-gap length 0:00:01.43
Peak level 99.9 %
Track quality 100.0 %
Test CRC 6D60E301
Copy CRC 6D60E301
Cannot be verified as accurate (confidence 5) [9976D38D], AccurateRip returned [AE5BDF1D]
Copy OK
No tracks could be verified as accurate
You may have a different pressing from the one(s) in the database
No errors occurred
End of status report

Far Beyond The Sun - Yngwie Malmsteen (видео)

Яндекс.Метрика
Рейтинг@Mail.ru