[UKR] (Folk-Rock) ТІК (ТиК - тиХИЙ + bonus video - 2008, FLAC (image+.cue), lossless

 

Создавать темы 09-Июл-2014 21:49

ТІК - тиХИЙ + bonus video Жанр: Folk-Rock
Год выпуска диска: 2008
Производитель диска: UKR
Аудио кодек: FLAC
Тип рипа: image+.cue
Битрейт аудио: lossless
Продолжительность: 41:45.16
Трэклист:
01. Ой, піду я на гору крутую (за участю вокального ансамблю ''Соколова'')
02. Пісня про капєц
03. Білі троянди
04. Сінєглазочка
05. Good bye, girls
06. Пісня про воно
07. ЕРЕНБІ
08. Свєта
09. В День Народження
10. Guests
11. Ukrainian фолк-панк
12. Happy New Year
13. Олені (remix)

eac.log

Exact Audio Copy V0.99 prebeta 4 from 23. January 2008
EAC extraction logfile from 3. January 2009, 20:09
ТІК / тиХИЙ
Used drive : MATSHITADVD-R UJ-85J Adapter: 0 ID: 1
Read mode : Secure
Utilize accurate stream : Yes
Defeat audio cache : Yes
Make use of C2 pointers : No
Read offset correction : 102
Overread into Lead-In and Lead-Out : No
Fill up missing offset samples with silence : Yes
Delete leading and trailing silent blocks : No
Null samples used in CRC calculations : Yes
Used interface : Native Win32 interface for Win NT & 2000
Used output format : Internal WAV Routines
Sample format : 44.100 Hz; 16 Bit; Stereo
TOC of the extracted CD
Track | Start | Length | Start sector | End sector
---------------------------------------------------------
1 | 0:00.00 | 2:26.36 | 0 | 10985
2 | 2:26.36 | 3:00.15 | 10986 | 24500
3 | 5:26.51 | 3:45.06 | 24501 | 41381
4 | 9:11.57 | 2:56.59 | 41382 | 54640
5 | 12:08.41 | 2:45.09 | 54641 | 67024
6 | 14:53.50 | 2:27.58 | 67025 | 78107
7 | 17:21.33 | 2:49.31 | 78108 | 90813
8 | 20:10.64 | 2:55.14 | 90814 | 103952
9 | 23:06.03 | 3:38.15 | 103953 | 120317
10 | 26:44.18 | 2:49.56 | 120318 | 133048
11 | 29:33.74 | 3:40.21 | 133049 | 149569
12 | 33:14.20 | 2:44.56 | 149570 | 161925
13 | 35:59.01 | 3:14.15 | 161926 | 176490
14 | 41:45.16 | 27:17.11 | 187891 | 310676
Range status and errors
Selected range
Filename Y:\Downloads\Music\tuXUY.wav
Peak level 100.0 %
Range quality 100.0 %
Copy CRC 47AA3274
Copy OK
No errors occurred
End of status report
Яндекс.Метрика
Рейтинг@Mail.ru