(Classical) Paul Mauriat - Classics in the Air 3 - 1987, FLAC (image+.cue), lossless

 

Создавать темы 09-Июл-2014 19:03

Paul Mauriat - Classics in the Air 3- Жанр: Classical
Год выпуска диска: 1987
Производитель диска: W Germany
Аудио кодек: FLAC
Тип рипа: image+.cue
Битрейт аудио: lossless
Продолжительность: 00:40:21
Трэклист:
01. Carmen (Medley) (G.Bizet) (3:09)
02. Ave Maria (F.Schubert) (4:18)
03. Symphony N 40, 1st movement (W.-A.Mozart) (3:19)
04. Cantata N 147 (I.-S.Bach) (2:58)
05. Melody (A.-G.Rubinstein) (3:05)
06. Anitra's dance (E.Grieg) (3:19)
07. The spring, The Four Seasons (A.Vivaldi) (3:32)
08. Albinoni's Adagio (Giazotto/Albinoni) (3:34)
09. Zigeunerweisen (P.de Sarasate) (3:18)
10. Humoresque (A.Dvorak) (2:36)
11. Etude in E (F.Chopin) (3:26)
12. Prelude (I.Albeniz) (3:47)

Лог извлечения Paul Mauriat - Classics in the Air 3

Exact Audio Copy V0.99 prebeta 4 from 23. January 2008
Отчёт EAC об извлечении, выполненном 3. марта 2009, 11:54
Paul Mauriat / Classics in the air 3
Дисковод: TEAC DW-548D Adapter: 1 ID: 0
Режим чтения : Достоверность
Использование точного потока : Да
Отключение кэша аудио : Да
Использование указателей C2 : Нет
Коррекция смещения при чтении : 6
Способность читать области Lead-in и Lead-out : Нет
Заполнение пропущенных сэмплов тишиной : Да
Удаление блоков с тишиной в начале и конце : Нет
При вычислениях CRC использовались нулевые сэмплы : Да
Интерфейс : Установленный внешний ASPI-интерфейс
Выходной формат : Пользовательский кодировщик
Выбранный битрейт : 768 kBit/s
Качество : Высокий
Добавление ID3-тэга : Нет
Утилита сжатия : C:\Program Files\Exact Audio Copy\Flac\flac.EXE
Дополнительные параметры : -8 -V %s -o %d
TOC извлечённого CD
Трек | Старт | Длительность | Начальный сектор | Конечный сектор
---------------------------------------------------------------------
1 | 0:00.00 | 3:08.38 | 0 | 14137
2 | 3:08.38 | 4:17.50 | 14138 | 33462
3 | 7:26.13 | 3:19.00 | 33463 | 48387
4 | 10:45.13 | 2:58.25 | 48388 | 61762
5 | 13:43.38 | 3:04.50 | 61763 | 75612
6 | 16:48.13 | 3:19.00 | 75613 | 90537
7 | 20:07.13 | 3:32.32 | 90538 | 106469
8 | 23:39.45 | 3:34.25 | 106470 | 122544
9 | 27:13.70 | 3:18.30 | 122545 | 137424
10 | 30:32.25 | 2:35.70 | 137425 | 149119
11 | 33:08.20 | 3:25.68 | 149120 | 164562
12 | 36:34.13 | 3:47.00 | 164563 | 181587
Характеристики диапазона извлечения и сообщения об ошибках
Выбранный диапазон
Имя файла C:\Documents and Settings\Paul Mauriat - Classics in the air 3\Paul Mauriat - Classics in the air 3.wav
Пиковый уровень 100.0 %
Качество диапазона 100.0 %
CRC копии 0CF4A521
Копирование... OK
Ошибок не произошло
Конец отчёта

Отчёт Audioсhecker

AUDIOCHECKER v2.0 beta (build 457) - by Dester - [email protected]
~~~~~~~~~~~~~~~~~~~~~~~~~~~~~~~~~~
Начато: среда, 04. 03. 2009. - 10:39.37
Найдено файлов: 1
1 -===- C:\Documents and Settings\Paul Mauriat - Classics in the air 3\Paul Mauriat - Classics in the air 3.flac
Извлечение успешно выполнено
Заключение: этот трек - CDDA с вероятностью 100%
Временный файл удалён.
Завершено: среда, 04. 03. 2009. - 11:02.12 (Время операции: 0:22.34)
Яндекс.Метрика
Рейтинг@Mail.ru