Жизнь за гранью / After.Life (Агнешка Войтович-Восло/ Agnieszka Wojtowicz-Vosloo) [2009, Мистический триллер, ужасы, драма, детектив, BDRip]

 

Создавать темы 09-Июл-2014 14:49

Жизнь за гранью / After.Life - Год выпуска: 2009
Производство: США, Harbor Light Entertainment
Жанр: Мистический триллер, ужасы, драма, детектив
Режиссер: Агнешка Войтович-Восло
Актеры: Кристина Риччи, Лиам Нисон, Джастин Лонг, Чандлер Кентербери, Селия Уэстон, Луз Александра, Джош Чарльз, Розмари Мёрфи, Мэлаки МакКорт, Шулер Хенсли
Описание фильма:
После ужасной автомобильной катастрофы, практически побывав на том свете, Анна приходит в себя и видит местного похоронного агента Элиота Дикона, который готовит ее тело к похоронам. Запутанная, испуганная и чувствующая себя все еще не очень живой, Анна все-таки не верит, что она мертва, несмотря на заверения Дикона, что она находится просто в переходе к загробной жизни. Элиот убеждает ее, что он имеет способность общаться с мертвыми и может помочь ей. Анна вынуждена оказаться перед своими самыми глубокими страхами и поверить в собственную смерть. Но убитый горем друг Анны Пол никак не может понять, что Элиот не тот, за кого себя выдает.

Перевод: Дублированный, авторский
Субтитры: Русские, английские
Вид субтитров: Вшитые (отключаемые)
Кинопоиск
IMDB
Продолжительность: 01:42:53
Качество видео: BDRip (AVC)
Видеокодек: MPEG-4 AVC
Битрейт видео: ~1857 Кбит/с
Размер кадра: 1024x426
Аудио:
1. AC3, 6 ch, 384 Кбит/с - русский (дублированный)
1. AC3, 6 ch, 384 Кбит/с - авторский одноголосый [Юрий Сербин]
2. AC3, 6 ch, 384 Кбит/с - украинский (многоголосый)
3. AC3, 6 ch, 384 Кбит/с - английский

MediaInfo:

Общее
Уникальный идентификатор                 : 219916306608778524937353257879553671903 (0xA572570B44A8DE58A82DFE099F6B82DF)
Формат                                   : Matroska
Версия формата                           : Version 2
Размер файла                             : 2,44 Гбайт
Продолжительность                        : 1 ч. 42 м.
Общий поток                              : 3396 Кбит/сек
Программа кодирования                    : mkvmerge v6.6.0 ('The Edge Of The In Between') built on Dec  1 2013 17:55:00
Библиотека кодирования                   : libebml v1.3.0 + libmatroska v1.4.1
Видео
Идентификатор                            : 1
Формат                                   : AVC
Формат/Информация                        : Advanced Video Codec
Профиль формата                          : [url=mailto:[email protected]][email protected][/url]
Параметр CABAC формата                   : Да
Параметр ReFrames формата                : 9 кадров
Идентификатор кодека                     : V_MPEG4/ISO/AVC
Продолжительность                        : 1 ч. 42 м.
Битрейт                                  : 1857 Кбит/сек
Ширина                                   : 1024 пикселя
Высота                                   : 426 пикселей
Соотношение сторон                       : 2,40:1
Частота кадров                           : 23,976 кадра/сек
Цветовое пространство                    : YUV
Субдискретизация насыщенности            : 4:2:0
Битовая глубина                          : 8 бит
Тип развёртки                            : Прогрессивная
Бит/(Пиксели*Кадры)                      : 0.178
Размер потока                            : 1,29 Гбайт (53%)
Заголовок                                : Rip by 0ptimus
Библиотека кодирования                   : x264 core 133 r2334 a3ac64b
Настройки программы                      : cabac=1 / ref=9 / deblock=1:-3:-3 / analyse=0x3:0x113 / me=umh / subme=11 / psy=1 / psy_rd=1.00:0.20 / mixed_ref=1 / me_range=32 / chroma_me=1 / trellis=2 / 8x8dct=1 / cqm=0 / deadzone=21,11 / fast_pskip=0 / chroma_qp_offset=-3 / threads=3 / lookahead_threads=1 / sliced_threads=0 / nr=0 / decimate=0 / interlaced=0 / bluray_compat=0 / constrained_intra=0 / bframes=12 / b_pyramid=2 / b_adapt=2 / b_bias=0 / direct=3 / weightb=1 / open_gop=0 / weightp=2 / keyint=240 / keyint_min=23 / scenecut=40 / intra_refresh=0 / rc_lookahead=40 / rc=2pass / mbtree=0 / bitrate=1857 / ratetol=1.0 / qcomp=0.60 / qpmin=0 / qpmax=69 / qpstep=4 / cplxblur=20.0 / qblur=0.5 / vbv_maxrate=50000 / vbv_bufsize=50000 / nal_hrd=none / ip_ratio=1.40 / pb_ratio=1.30 / aq=1:1.00
Язык                                     : English
Default                                  : Да
Forced                                   : Да
Аудио #1
Идентификатор                            : 2
Формат                                   : AC-3
Формат/Информация                        : Audio Coding 3
Расширение режима                        : CM (complete main)
Идентификатор кодека                     : A_AC3
Продолжительность                        : 1 ч. 42 м.
Вид битрейта                             : Постоянный
Битрейт                                  : 384 Кбит/сек
Каналы                                   : 6 каналов
Расположение каналов                     : Front: L C R, Side: L R, LFE
Частота                                  : 48,0 КГц
Битовая глубина                          : 16 бит
Метод сжатия                             : С потерями
Размер потока                            : 283 Мбайт (11%)
Заголовок                                : Дублированный AC3 5.1 @ 384 kbps
Язык                                     : Russian
Default                                  : Да
Forced                                   : Да
Аудио #2
Идентификатор                            : 3
Формат                                   : AC-3
Формат/Информация                        : Audio Coding 3
Расширение режима                        : CM (complete main)
Идентификатор кодека                     : A_AC3
Продолжительность                        : 1 ч. 42 м.
Вид битрейта                             : Постоянный
Битрейт                                  : 384 Кбит/сек
Каналы                                   : 6 каналов
Расположение каналов                     : Front: L C R, Side: L R, LFE
Частота                                  : 48,0 КГц
Битовая глубина                          : 16 бит
Метод сжатия                             : С потерями
Размер потока                            : 283 Мбайт (11%)
Заголовок                                : Авторский [Юрий Сербин] AC3 5.1 @ 384 kbps
Язык                                     : Russian
Default                                  : Нет
Forced                                   : Нет
Аудио #3
Идентификатор                            : 4
Формат                                   : AC-3
Формат/Информация                        : Audio Coding 3
Расширение режима                        : CM (complete main)
Идентификатор кодека                     : A_AC3
Продолжительность                        : 1 ч. 42 м.
Вид битрейта                             : Постоянный
Битрейт                                  : 384 Кбит/сек
Каналы                                   : 6 каналов
Расположение каналов                     : Front: L C R, Side: L R, LFE
Частота                                  : 48,0 КГц
Битовая глубина                          : 16 бит
Метод сжатия                             : С потерями
Размер потока                            : 283 Мбайт (11%)
Заголовок                                : Многоголосый закадровый AC3 5.1 @ 384 kbps
Язык                                     : Ukrainian
Default                                  : Нет
Forced                                   : Нет
Аудио #4
Идентификатор                            : 5
Формат                                   : AC-3
Формат/Информация                        : Audio Coding 3
Расширение режима                        : CM (complete main)
Идентификатор кодека                     : A_AC3
Продолжительность                        : 1 ч. 42 м.
Вид битрейта                             : Постоянный
Битрейт                                  : 384 Кбит/сек
Каналы                                   : 6 каналов
Расположение каналов                     : Front: L C R, Side: L R, LFE
Частота                                  : 48,0 КГц
Битовая глубина                          : 16 бит
Метод сжатия                             : С потерями
Размер потока                            : 283 Мбайт (11%)
Заголовок                                : AC3 5.1 @ 384 kbps
Язык                                     : English
Default                                  : Нет
Forced                                   : Нет
Текст #1
Идентификатор                            : 6
Формат                                   : UTF-8
Идентификатор кодека                     : S_TEXT/UTF8
Идентификатор кодека/Информация          : UTF-8 Plain Text
Заголовок                                : По переводу Юрия Сербина
Язык                                     : Russian
Default                                  : Нет
Forced                                   : Нет
Текст #2
Идентификатор                            : 7
Формат                                   : UTF-8
Идентификатор кодека                     : S_TEXT/UTF8
Идентификатор кодека/Информация          : UTF-8 Plain Text
Язык                                     : English
Default                                  : Нет
Forced                                   : Нет
Меню
00:00:00.000                             : en:Somewhere Else
00:03:59.113                             : en:Final Respects
00:10:38.804                             : en:Misunderstanding
00:14:13.978                             : en:Massive Internal Trauma
00:20:48.038                             : en:Devastating News
00:30:44.634                             : en:"The Dead Can't Harm The Dead"
00:41:26.901                             : en:Feels More Like Hell
00:47:25.342                             : en:"You Will Never Live Again"
00:59:30.858                             : en:Ghostly Vision
01:05:01.230                             : en:Nothing To Say
01:11:23.362                             : en:"You Can't Help Her Anymore"
01:17:07.456                             : en:Too Scared To Love
01:24:21.264                             : en:The Funeral
01:29:47.673                             : en:Premature Burial
01:34:39.382                             : en:The Night Anna Came Out Of The Grave
01:37:14.787                             : en:End Credits
Скриншоты:
Яндекс.Метрика
Рейтинг@Mail.ru