(Blues Rock) Dire Straits - Communique (Japan 1st Press 3330-2 Target CD) - 1979, FLAC (image+.cue), lossless

 

Создавать темы 07-Июл-2014 20:18

--Dire Straits - Communique (3330-2 Japan Target CD)-- Страна: UK
Жанр: Blues Rock
Страна-производитель диска: Japan (by Sanyo)
Год издания диска: 1983
Издатель (лейбл): Warner Bros.
Номер по каталогу: 3330-2
Аудиокодек: FLAC (*.flac)
Тип рипа: image+.cue
Битрейт аудио: lossless
Продолжительность: 00:42:44
Scans: да
Треклист:

01. Once upon a Time in the West (05:26)
02. News (04:13)
03. Where Do You Think You're Going? (03:50)
04. Communique (05:50)
05. Lady Writer (03:45)
06. Angel of Mercy (04:35)
07. Portobello Belle (04:30)
08. Single-Handed Sailor (04:41)
09. Follow Me Home (05:51)

Отчёт EAC

Exact Audio Copy V0.99 prebeta 5 from 4. May 2009
Отчёт EAC об извлечении, выполненном 12. января 2012, 10:33
Dire Straits / Communique (3330-2 Japan Target CD)
Дисковод: HL-DT-STDVDRAM GH20NS10 Adapter: 1 ID: 0
Режим чтения : Достоверность
Использование точного потока : Да
Отключение кэша аудио : Да
Использование указателей C2 : Нет
Коррекция смещения при чтении : 667
Способность читать области Lead-in и Lead-out : Нет
Заполнение пропущенных сэмплов тишиной : Да
Удаление блоков с тишиной в начале и конце : Нет
При вычислениях CRC использовались нулевые сэмплы : Да
Интерфейс : Встроенный Win32-интерфейс для Win NT/2000
Выходной формат : Внутренние WAV-операции
Формат сэмплов : 44.100 Гц; 16 бит; стерео
TOC извлечённого CD
Трек | Старт | Длительность | Начальный сектор | Конечный сектор
---------------------------------------------------------------------
1 | 0:00.00 | 5:26.25 | 0 | 24474
2 | 5:26.25 | 4:13.42 | 24475 | 43491
3 | 9:39.67 | 3:50.35 | 43492 | 60776
4 | 13:30.27 | 5:50.13 | 60777 | 87039
5 | 19:20.40 | 3:45.67 | 87040 | 103981
6 | 23:06.32 | 4:35.43 | 103982 | 124649
7 | 27:42.00 | 4:30.00 | 124650 | 144899
8 | 32:12.00 | 4:41.22 | 144900 | 165996
9 | 36:53.22 | 5:51.43 | 165997 | 192364
Характеристики диапазона извлечения и сообщения об ошибках
Выбранный диапазон
Имя файла D:\Dire Straits - Communique (1979) APE =Target CD=\Dire Straits - Communique (3330-2 Japan Target CD).wav
Пиковый уровень 91.6 %
Качество диапазона 99.9 %
CRC копии 4F084ADC
Копирование... OK
Ошибок не произошло
AccurateRip: сводка
Трек 1 точное извлечение (доверие 9) [B6B479D9]
Трек 2 точное извлечение (доверие 10) [B19B8BBF]
Трек 3 точное извлечение (доверие 10) [0D94FCCD]
Трек 4 точное извлечение (доверие 10) [A404AFBE]
Трек 5 точное извлечение (доверие 10) [85F88AC9]
Трек 6 точное извлечение (доверие 10) [1B271451]
Трек 7 точное извлечение (доверие 10) [1C488CE2]
Трек 8 точное извлечение (доверие 9) [E3FCA9B8]
Трек 9 точное извлечение (доверие 8) [1B2C3645]
Все треки извлечены точно
Конец отчёта
Яндекс.Метрика
Рейтинг@Mail.ru