Не угаснет надежда / All Is Lost (2013) DVDScr [VO]

 

Создавать темы 07-Июл-2014 14:56

Не угаснет надежда / All Is Lost (2013) DVDScr- Год выпуска: 2013
Производство: США
Жанр: Драма, Приключения
Перевод: Одноголосый закадровый, любительский
Озвучка / Автор перевода: den904
Субтитры: Вшитые не отключаемые
Язык субтитров: Арабский
Дата мировой премьеры: 22 мая 2013
Дата российской премьеры: 16 января 2014, «UPI»
Дата выхода DVD релиза: 6 марта 2014, «Двадцатый Век Фокс СНГ», ...
Режиссер: Джей Си Чендор
Актеры: Роберт Редфорд
Описание фильма:
Высокий загорелый мужчина путешествует на роскошной яхте в теплых водах Индийского океана, но идиллическая картина меняется в одночасье, и герой оказывается один на один с бездной. Ради тех, кто остался на берегу, он вступит в схватку со свирепой стихией.
Продолжительность: 01:41:01
Качество видео: DVDScr
Видеокодек: Xvid
Битрейт видео: ~816 kbps
Размер кадра: 608x336
Аудиокодек: AC3 2.0
Битрейт аудио: 192 Kbps Kb/s
Сэмпл: Скачать

MI

Полное имя : All.Is.Lost.2013.avi
Формат : AVI
Формат/Информация : Audio Video Interleave
Размер файла : 736 Мбайт
Продолжительность : 1 ч. 41 м.
Общий поток : 1018 Кбит/сек
Программа кодирования : VirtualDubMod 1.5.10.2 (build 2540/release)
Библиотека кодирования : VirtualDubMod build 2540/release
Видео
Идентификатор : 0
Формат : MPEG-4 Visual
Профиль формата : Advanced [email protected]
Параметр BVOP формата : 2
Параметр QPel формата : Нет
Параметр GMC формата : Без точки перехода
Параметр матрицы формата : Default (H.263)
Идентификатор кодека : XVID
Идентификатор кодека/Подсказка : XviD
Продолжительность : 1 ч. 41 м.
Битрейт : 816 Кбит/сек
Ширина : 608 пикселей
Высота : 336 пикселей
Соотношение сторон : 16:9
Частота кадров : 25,000 кадров/сек
Цветовое пространство : YUV
Субдискретизация насыщенности : 4:2:0
Битовая глубина : 8 бит
Тип развёртки : Прогрессивная
Метод сжатия : С потерями
Бит/(Пиксели*Кадры) : 0.160
Размер потока : 590 Мбайт (80%)
Библиотека кодирования : XviD 1.2.1 (UTC 2008-12-04)
Аудио
Идентификатор : 1
Формат : AC-3
Формат/Информация : Audio Coding 3
Расширение режима : CM (complete main)
Параметр Endianness формата : Big
Идентификатор кодека : 2000
Продолжительность : 1 ч. 41 м.
Вид битрейта : Постоянный
Битрейт : 192 Кбит/сек
Каналы : 2 канала
Расположение каналов : Front: L R
Частота : 48,0 КГц
Битовая глубина : 16 бит
Метод сжатия : С потерями
Размер потока : 139 Мбайт (19%)
Выравнивание : Разделение по промежуткам
Продолжительность промежутка : 40 мс. (1,00 видеокадр)
Время предзагрузки промежутка : 500 мс.
Скриншоты:
-Время раздачи: 16:00-02:00

Яндекс.Метрика
Рейтинг@Mail.ru