Алан Партридж / Alan Partridge: Alpha Papa (Деклан Лауни/Declan Lowney) [Комедия, 2013] (HDRip) [DVO]

 

Создавать темы 07-Июл-2014 14:42

Алан Партридж / Alan Partridge: Alpha Papa- Год выпуска: 2013
Производство: Великобритания, Франция / Baby Cow Films, Baby Cow Productions Ltd.
Жанр: Комедия
Перевод: Двуголосый закадровый, любительский (Студия "Paradox")
Субтитры: Отсутствуют
Внимание! Присутствует ненормативная лексика!
Дата мировой премьеры: 24 июля 2013
Режиссер: Деклан Лауни
Продюсер: Кевин Лоудер, Хенри Нормал, Стив Куган
Актеры: Стив Куган, Колм Мини, Анна Максвелл Мартин, Шон Пертуи, Джессика Нэппет, Даррен Бойд, Моника Долан, Найджел Линдсэй, Саймон Делани, Фелисити Монтегю
Описание фильма:
Новый медиа-конгломерат подминает под себя радиостанцию Алана Партриджа, что приводит к череде событий, ведущих героя, которому теперь грозит опасность, к сотрудничеству с полицией.

Продолжительность: 01:30:10
Качество видео: HDRip
Видеокодек: Xvid
Битрейт видео: ~944 Kbit/s
Размер кадра: 640 x 272
Аудиокодек: MP3 2.0
Битрейт аудио: 128 Kbit/s

MediaInfo

Общее
Формат                           : AVI
Формат/Информация                : Audio Video Interleave
Размер файла                     : 698 Мбайт
Продолжительность                : 1 ч. 30 м.
Общий поток                      : 1081 Кбит/сек
Программа кодирования            : VirtualDubMod 1.5.10.2 (build 2542/release)
Библиотека кодирования           : VirtualDubMod build 2542/release
[br]
Видео
Идентификатор                    : 0
Формат                           : MPEG-4 Visual
Профиль формата                  : Advanced [email protected]
Параметр BVOP формата            : 2
Параметр QPel формата            : Нет
Параметр GMC формата             : Без точки перехода
Параметр матрицы формата         : Default (H.263)
Режим смешивания                 : Сжатый битовый поток
Идентификатор кодека             : XVID
Идентификатор кодека/Подсказка   : XviD
Продолжительность                : 1 ч. 30 м.
Битрейт                          : 944 Кбит/сек
Ширина                           : 640 пикс.
Высота                           : 272 пикс.
Соотношение сторон               : 2,35:1
Частота кадров                   : 23,976 кадр/сек
Цветовое пространство            : YUV
Подвыборка цветности             : 4:2:0
Битовая глубина                  : 8 бит
Тип развёртки                    : Прогрессивная
Метод сжатия                     : С потерями
Бит/(Пиксели*Кадры)              : 0.226
Размер потока                    : 609 Мбайт (87%)
Библиотека кодирования           : XviD 64
[br]
Аудио
Идентификатор                    : 1
Формат                           : MPEG Audio
Версия формата                   : Version 1
Профиль формата                  : Layer 3
Идентификатор кодека             : 55
Идентификатор кодека/Подсказка   : MP3
Продолжительность                : 1 ч. 30 м.
Вид битрейта                     : Постоянный
Битрейт                          : 128 Кбит/сек
Каналы                           : 2 канала
Частота                          : 48,0 КГц
Метод сжатия                     : С потерями
Размер потока                    : 82,6 Мбайт (12%)
Выравнивание                     : Соединение по промежуткам
Продолжительность промежутка     : 42  мс. (1,00 видеокадр)
Время предзагрузки промежутка    : 504 ms
Библиотека кодирования           : LAME3.99r
Настройки программы              : -m s -V 4 -q 2 -lowpass 17 -b 128
Скриншоты:
-
Яндекс.Метрика
Рейтинг@Mail.ru