[ Сегодня на трекере фрилич! Идет свободное скачивание без начисления Download ]

Шоколад / Chocolat (Лассе Халльстрём / Lasse Hallstrom) [2000 г., драма, мелодрама., BDRip-AVC] AVO (Карповский, Иванов) + Sub (Rus, Eng)

 

Создавать темы 06-Июл-2014 17:07

-Шоколад / Chocolat-«Нужно только попробовать»- -Производство: США, Великобритания
Год выпуска: 2000 г.
Жанр: драма, мелодрама
Продолжительность: 02:01:41-Перевод 1: Авторский (одноголосый закадровый) Карповский
Перевод 1: Авторский (одноголосый закадровый) Иванов-Субтитры: русские, английские
Чаптеры: сохранены
Режиссер: Лассе Халльстрём / Lasse Hallstrom
В ролях: Жюльетт Бинош, Джуди Денч, Альфред Молина, Кэрри-Энн Мосс, Джонни Депп, Лена Улин, Антонио Гил-Мартинес, Хелен Кардона, Хью О`Конор, Харрисон Прэтт, Гэлан Коннелл, Петер Стормаре, Орелин Парент Кениг, Лесли Карон-Описание: Как-то зимним днем в тихом французском городке появляется молодая женщина по имени Виенн. А чуть позже она открывает необычный шоколадный магазин, предлагая посетителям испытать новое удовольствие. И действительно, побывав у нее однажды, люди вновь и вновь поддаются сладкому очарованию. Просто Виенн волшебным образом угадывает чужие желания. И они сбываются! Но только когда в город приезжает Ру, Виенн, наконец, смогла понять свои собственные…-Качество видео: BDRip-AVC
Контейнер: MKV
Видео кодек: H.264
Аудио кодек: AC3
Видео: 1024x576, 23.976 fps, ~3 350 Kbps, 0.237 bit/pixel
Аудио 1: 48 kHz, AC3 Dolby Digital, 3/2 (L,C,R,l,r) + LFE ch, ~448 kbps - Карповский
Аудио 1: 48 kHz, AC3 Dolby Digital, 3/2 (L,C,R,l,r) + LFE ch, ~448 kbps – Иванов
Cубтитры: softsub (SRT)

Media Info

General
Unique ID : 251958822614180891260969479452547250133 (0xBD8D810E2C69CA95A044E1FFEE8E77D5)
Format : Matroska
Format version : Version 2
File size : 3.61 GiB
Duration : 2h 1mn
Overall bit rate : 4 247 Kbps
Encoded date : UTC 2014-07-06 09:51:47
Writing application : mkvmerge v4.7.0 ('Just Like You Imagined') сборка от Apr 21 2011 01:13:14
Writing library : libebml v1.2.0 + libmatroska v1.1.0
Video
ID : 1
Format : AVC
Format/Info : Advanced Video Codec
Format profile : [email protected]
Format settings, CABAC : Yes
Format settings, ReFrames : 9 frames
Codec ID : V_MPEG4/ISO/AVC
Bit rate : 3 350 Kbps
Width : 1 024 pixels
Height : 576 pixels
Display aspect ratio : 16:9
Frame rate mode : Variable
Original frame rate : 23.976 fps
Color space : YUV
Chroma subsampling : 4:2:0
Bit depth : 8 bits
Scan type : Progressive
Bits/(Pixel*Frame) : 0.237
Writing library : x264 core 142 r2409+42 04be48a tMod [[email protected]:2:0 X86]
Encoding settings : cabac=1 / ref=9 / deblock=1:-2:-2 / analyse=0x3:0x133 / me=umh / subme=11 / psy=1 / fade_compensate=0.00 / psy_rd=1.00:0.20 / mixed_ref=1 / me_range=32 / chroma_me=1 / trellis=2 / 8x8dct=1 / cqm=0 / deadzone=21,11 / fast_pskip=0 / chroma_qp_offset=-3 / threads=6 / lookahead_threads=1 / sliced_threads=0 / nr=0 / decimate=0 / interlaced=0 / bluray_compat=0 / constrained_intra=0 / fgo=0 / bframes=8 / b_pyramid=2 / b_adapt=2 / b_bias=0 / direct=3 / weightb=1 / open_gop=0 / weightp=2 / keyint=240 / keyint_min=23 / scenecut=40 / intra_refresh=0 / rc=2pass / mbtree=0 / bitrate=3350 / ratetol=1.0 / qcomp=0.60 / qpmin=0:0:0 / qpmax=69:69:69 / qpstep=4 / cplxblur=20.0 / qblur=0.5 / ip_ratio=1.40 / pb_ratio=1.30 / aq=1:1.00 / aq-sensitivity=10.00 / aq-factor=1.00:1.00:1.00 / aq2=0 / aq3=0
Language : English
Default : Yes
Forced : No
Audio #1
ID : 2
Format : AC-3
Format/Info : Audio Coding 3
Mode extension : CM (complete main)
Format settings, Endianness : Big
Codec ID : A_AC3
Duration : 2h 1mn
Bit rate mode : Constant
Bit rate : 448 Kbps
Channel count : 6 channels
Channel positions : Front: L C R, Side: L R, LFE
Sampling rate : 48.0 KHz
Bit depth : 16 bits
Compression mode : Lossy
Stream size : 390 MiB (11%)
Title : AVO (Karpovsky)
Language : Russian
Default : Yes
Forced : No
Audio #2
ID : 3
Format : AC-3
Format/Info : Audio Coding 3
Mode extension : CM (complete main)
Format settings, Endianness : Big
Codec ID : A_AC3
Duration : 2h 1mn
Bit rate mode : Constant
Bit rate : 448 Kbps
Channel count : 6 channels
Channel positions : Front: L C R, Side: L R, LFE
Sampling rate : 48.0 KHz
Bit depth : 16 bits
Compression mode : Lossy
Stream size : 390 MiB (11%)
Title : AVO (Ivanov)
Language : Russian
Default : No
Forced : No
Text #1
ID : 4
Format : UTF-8
Codec ID : S_TEXT/UTF8
Codec ID/Info : UTF-8 Plain Text
Language : Russian
Default : No
Forced : No
Text #2
ID : 5
Format : UTF-8
Codec ID : S_TEXT/UTF8
Codec ID/Info : UTF-8 Plain Text
Language : English
Default : No
Forced : No
Menu
00:00:00.000 : en:00:00:00.000
00:07:13.850 : en:00:07:13.850
00:17:21.123 : en:00:17:21.123
00:22:16.793 : en:00:22:16.794
00:28:17.779 : en:00:28:17.779
00:36:56.214 : en:00:36:56.214
00:40:44.358 : en:00:40:44.359
00:48:59.603 : en:00:48:59.603
00:53:43.261 : en:00:53:43.262
01:00:54.525 : en:01:00:54.526
01:07:40.264 : en:01:07:40.265
01:16:22.286 : en:01:16:22.286
01:24:43.078 : en:01:24:43.078
01:35:43.821 : en:01:35:43.821
01:44:38.355 : en:01:44:38.355
01:52:20.483 : en:01:52:20.484

Скриншоты

Яндекс.Метрика
Рейтинг@Mail.ru