Чемпионы (Алексей Вакулов, Артем Аксененко, Дмитрий Дюжев) [Драма, спорт, 2014] (WEB-DLRip)

 

Создавать темы 06-Июл-2014 05:06

-Чемпионы- Год выпуска: 2014
Производство: Россия, Enjoy Movies, Renovatio ent.
Жанр: Драма, спорт
Перевод: Не требуется (русский)
Дата мировой премьеры: 23 января 2014
Дата российской премьеры: 23 января 2014 «Каропрокат»
Дата выхода DVD релиза: 18 февраля 2014 «Lizard Cinema Trade»
Режиссер: Алексей Вакулов, Артем Аксененко, Дмитрий Дюжев
Продюсер: Георгий Малков, Сарик Андреасян, Гевонд Андреасян
Актеры: Светлана Ходченкова, Алексей Чадов, Марк Богатырёв, Андрей Смоляков, Константин Крюков, Татьяна Арнтгольц, Таисия Вилкова, Александр Молочников, Максим Виторган, Ангелина Добророднова, Ольга Тумайкина, Андрей Федорцов, Екатерина Климова, Михаил Горевой, Игорь Верник, Дмитрий Губерниев, Виктор Гусев (III), Семен Трескунов, Юлия Гришина, Андрис Лиелайс, Анатолий Лобоцкий, Александр Сазонов, Андрей Лебедев, Тимур Ефременков, Егор Клинаев, Виталий Абдулов, Евгений Шириков
Описание фильма:
В центре сюжета фильма история пути к чемпионским титулам нескольких спортсменов. Пять реальных историй олимпийских медалей России. Пять историй, где переплетаются любовь, предательство, дружба. Это истории настоящих побед. И за каждой победой стоит уважение, труд и вера в себя, в близких и в свою страну.

Продолжительность: 01:37:56
Качество видео: WEB-DLRip
Видеокодек: Xvid
Битрейт видео: ~ 862 Кбит/сек
Размер кадра: 656x272
Аудиокодек: MP3, 2 ch
Битрейт аудио: 128 Кбит/сек

MediaInfo:

General
[br]
Format                                   : AVI
Format/Info                              : Audio Video Interleave
File size                                : 700 MiB
Duration                                 : 1h 37mn
Overall bit rate                         : 999 Kbps
Writing application                      : VirtualDubMod 1.5.10.3 || (build 2550/release)
Writing library                          : VirtualDubMod build 2550/release
[br]
Video
ID                                       : 0
Format                                   : MPEG-4 Visual
Format profile                           : Advanced [email protected]
Format settings, BVOP                    : 1
Format settings, QPel                    : No
Format settings, GMC                     : No warppoints
Format settings, Matrix                  : Default (H.263)
Codec ID                                 : XVID
Codec ID/Hint                            : XviD
Duration                                 : 1h 37mn
Bit rate                                 : 862 Kbps
Width                                    : 656 pixels
Height                                   : 272 pixels
Display aspect ratio                     : 2.40:1
Frame rate                               : 24.000 fps
Color space                              : YUV
Chroma subsampling                       : 4:2:0
Bit depth                                : 8 bits
Scan type                                : Progressive
Compression mode                         : Lossy
Bits/(Pixel*Frame)                       : 0.201
Stream size                              : 604 MiB (86%)
Writing library                          : XviD 73
[br]
Audio
ID                                       : 1
Format                                   : MPEG Audio
Format version                           : Version 1
Format profile                           : Layer 3
Mode                                     : Joint stereo
Mode extension                           : MS Stereo
Codec ID                                 : 55
Codec ID/Hint                            : MP3
Duration                                 : 1h 37mn
Bit rate mode                            : Constant
Bit rate                                 : 128 Kbps
Channel(s)                               : 2 channels
Sampling rate                            : 48.0 KHz
Compression mode                         : Lossy
Stream size                              : 89.7 MiB (13%)
Alignment                                : Aligned on interleaves
Interleave, duration                     : 42 ms (1.00 video frame)
Interleave, preload duration             : 504 ms
Скриншоты:
Яндекс.Метрика
Рейтинг@Mail.ru