Рио 2 / Rio 2 (Карлос Салдана/Carlos Saldanha)[2014.,Мультфильм, комедия, приключения, семейный] BDRip [1080p] 3D [Вертикальная анаморфная стереопара]

 

Создавать темы 06-Июл-2014 04:51

Рио 2 / Rio 2 3D- Год выпуска: 2014
Производство: США, 20th Century Fox Animation, Blue Sky Studios
Жанр: Мультфильм, комедия, приключения, семейный
Описание:
Блю, Джевел и их трое детей живут счастливой жизнью в волшебном городе Рио-де-Жанейро. Когда Джевел решает, что их детям нужно научиться жить как настоящим птицам, она настаивает на авантюрной поездке в дебри реки Амазонки. Там, пытаясь вписаться в новое окружение, Блю начинает беспокоиться, что может потерять Джевел и детей, идущих на зов дикой природы.
Режиссер: Карлос Салдана
Продюсер: Брюс Андерсон, Джон С. Донкин
Персонажи: Энн Хэтэуэй, Лесли Манн, Джейми Фокс, Джесси Айзенберг, Родриго Санторо, Энди Гарсиа, Трэйси Морган, Уилл Ай Эм, Джемейн Клемент, Кристин Ченоуэт
Продолжительность: 01:41:11
Качество видео: BDRip [1080p]
Перевод: Дублированный [Лицензия]
Вид субтитров: Вшитые отключаемые
Язык субтитров: Русский (forced, full), украинский, английский (full, full-colored)

Дата мировой премьеры: 20 марта 2014
Дата российской премьеры: 20 марта 2014, «Двадцатый Век Фокс СНГ»
Дата украинской премьеры: 20 марта 2014, «Ukrainian Film Distribution»
Видеокодек: MPEG-4 AVC/H.264
Битрейт видео: ~5497 Kbps
Размер кадра: 1920x800
Аудио 1: Русский: DTS, 48.0 KHz, 6 ch, 768 Kbps, CBR
Аудио 2: Русский: AC3, 48.0 KHz, 6 ch, 640 Kbps, CBR
Аудио 3: Украинский: AC3, 48.0 KHz, 6 ch, 448 Kbps, CBR
Аудио 4: Английский: DTS ES, 48.0 KHz, 6 ch, 1510 Kbps, CBR
Сэмпл: Ссылка

MediaInfo:

Общее
Уникальный идентификатор : 207629208661482784041877226800538561042 (0x9C33EE57EB99BA87ABC28A625C91AA12)
Полное имя : D:\Фильмы 3D\Rio.2.2014.D.BDRip.1080p.3D.Half-OUT.mkv
Формат : Matroska
Версия формата : Version 4 / Version 2
Размер файла : 6,27 Гбайт
Продолжительность : 1 ч. 41 м.
Общий поток : 8866 Кбит/сек
Дата кодирования : UTC 2014-07-04 06:13:50
Программа кодирования : mkvmerge v7.0.0 ('Where We Going') 64bit built on Jun 9 2014 15:16:27
Библиотека кодирования : libebml v1.3.0 + libmatroska v1.4.1
DURATION : 01:31:38.409000000
NUMBER_OF_FRAMES : 2445
NUMBER_OF_BYTES : 119770
_STATISTICS_WRITING_APP : mkvmerge v7.0.0 ('Where We Going') 64bit built on Jun 9 2014 15:16:27
_STATISTICS_WRITING_DATE_UTC : 2014-07-04 06:13:50
_STATISTICS_TAGS : BPS DURATION NUMBER_OF_FRAMES NUMBER_OF_BYTES
Attachment : Yes
Видео
Идентификатор : 1
Формат : AVC
Формат/Информация : Advanced Video Codec
Профиль формата : [url=mailto:[email protected]][email protected][/url]
Параметр CABAC формата : Да
Параметр ReFrames формата : 4 кадра
Идентификатор кодека : V_MPEG4/ISO/AVC
Продолжительность : 1 ч. 41 м.
Битрейт : 5324 Кбит/сек
Ширина : 1920 пикселей
Высота : 1080 пикселей
Соотношение сторон : 16:9
Режим частоты кадров : Постоянный
Частота кадров : 23,976 кадра/сек
Цветовое пространство : YUV
Субдискретизация насыщенности : 4:2:0
Битовая глубина : 8 бит
Тип развёртки : Прогрессивная
Бит/(Пиксели*Кадры) : 0.107
Размер потока : 3,76 Гбайт (60%)
Библиотека кодирования : x264 core 142 r2431 ac76440
Настройки программы : cabac=1 / ref=4 / deblock=1:-1:-1 / analyse=0x3:0x133 / me=umh / subme=7 / psy=1 / psy_rd=1.00:0.15 / mixed_ref=1 / me_range=16 / chroma_me=1 / trellis=1 / 8x8dct=1 / cqm=0 / deadzone=21,11 / fast_pskip=0 / chroma_qp_offset=-3 / threads=18 / lookahead_threads=3 / sliced_threads=0 / nr=0 / decimate=1 / interlaced=0 / bluray_compat=0 / constrained_intra=0 / bframes=3 / b_pyramid=2 / b_adapt=1 / b_bias=0 / direct=3 / weightb=1 / open_gop=0 / weightp=2 / keyint=240 / keyint_min=23 / scenecut=40 / intra_refresh=0 / rc_lookahead=50 / rc=crf / mbtree=1 / crf=20.0 / qcomp=0.60 / qpmin=10 / qpmax=51 / qpstep=4 / ip_ratio=1.40 / aq=1:1.00
Язык : English
Default : Да
Forced : Нет
DURATION : 01:41:10.106000000
NUMBER_OF_FRAMES : 145537
NUMBER_OF_BYTES : 4171183047
_STATISTICS_WRITING_APP : mkvmerge v7.0.0 ('Where We Going') 64bit built on Jun 9 2014 15:16:27
_STATISTICS_WRITING_DATE_UTC : 2014-07-04 06:13:50
_STATISTICS_TAGS : BPS DURATION NUMBER_OF_FRAMES NUMBER_OF_BYTES
Аудио #1
Идентификатор : 2
Формат : DTS
Формат/Информация : Digital Theater Systems
Режим : 16
Параметр Endianness формата : Big
Идентификатор кодека : A_DTS
Продолжительность : 1 ч. 41 м.
Вид битрейта : Постоянный
Битрейт : 768 Кбит/сек
Каналы : 6 каналов
Расположение каналов : Front: L C R, Side: L R, LFE
Частота : 48,0 КГц
Битовая глубина : 24 бит
Метод сжатия : С потерями
Размер потока : 556 Мбайт (9%)
Заголовок : DTS / 5.1 / 768 kbps / Licence (Blu-ray CEE)
Язык : Russian
Default : Да
Forced : Нет
Аудио #2
Идентификатор : 3
Формат : AC-3
Формат/Информация : Audio Coding 3
Расширение режима : CM (complete main)
Параметр Endianness формата : Big
Идентификатор кодека : A_AC3
Продолжительность : 1 ч. 41 м.
Вид битрейта : Постоянный
Битрейт : 640 Кбит/сек
Каналы : 6 каналов
Расположение каналов : Front: L C R, Side: L R, LFE
Частота : 48,0 КГц
Битовая глубина : 16 бит
Метод сжатия : С потерями
Размер потока : 463 Мбайт (7%)
Заголовок : AC3 / 5.1 / 640 kbps / Licence (Blu-ray CEE)
Язык : Russian
Default : Нет
Forced : Нет
Аудио #3
Идентификатор : 4
Формат : AC-3
Формат/Информация : Audio Coding 3
Расширение режима : CM (complete main)
Параметр Endianness формата : Big
Идентификатор кодека : A_AC3
Продолжительность : 1 ч. 41 м.
Вид битрейта : Постоянный
Битрейт : 448 Кбит/сек
Каналы : 6 каналов
Расположение каналов : Front: L C R, Side: L R, LFE
Частота : 48,0 КГц
Битовая глубина : 16 бит
Метод сжатия : С потерями
Размер потока : 324 Мбайт (5%)
Заголовок : AC3 / 5.1 / 448 kbps / Licence (Blu-ray CEE)
Язык : Ukrainian
Default : Нет
Forced : Нет
Аудио #4
Идентификатор : 5
Формат : DTS
Формат/Информация : Digital Theater Systems
Профиль формата : ES
Режим : 16
Параметр Endianness формата : Big
Идентификатор кодека : A_DTS
Продолжительность : 1 ч. 41 м.
Вид битрейта : Постоянный
Битрейт : 1509 Кбит/сек
Каналы : 6 каналов
Расположение каналов : Front: L C R, Side: L R, LFE
Частота : 48,0 КГц
Битовая глубина : 24 бит
Метод сжатия : С потерями
Размер потока : 1,07 Гбайт (17%)
Заголовок : DTS / 5.1 / 1510 kbps / Original
Язык : English
Default : Нет
Forced : Нет
Текст #1
Идентификатор : 6
Формат : UTF-8
Идентификатор кодека : S_TEXT/UTF8
Идентификатор кодека/Информация : UTF-8 Plain Text
Заголовок : Forced
Язык : Russian
Default : Да
Forced : Нет
Текст #2
Идентификатор : 7
Формат : UTF-8
Идентификатор кодека : S_TEXT/UTF8
Идентификатор кодека/Информация : UTF-8 Plain Text
Заголовок : Full
Язык : Russian
Default : Нет
Forced : Нет
Текст #3
Идентификатор : 8
Формат : UTF-8
Идентификатор кодека : S_TEXT/UTF8
Идентификатор кодека/Информация : UTF-8 Plain Text
Заголовок : Full
Язык : Ukrainian
Default : Нет
Forced : Нет
Текст #4
Идентификатор : 9
Формат : UTF-8
Идентификатор кодека : S_TEXT/UTF8
Идентификатор кодека/Информация : UTF-8 Plain Text
Заголовок : Full
Язык : English
Default : Нет
Forced : Нет
Текст #5
Идентификатор : 10
Формат : UTF-8
Идентификатор кодека : S_TEXT/UTF8
Идентификатор кодека/Информация : UTF-8 Plain Text
Заголовок : Full (Colored)
Язык : English
Default : Нет
Forced : Нет
Меню
00:00:00.000 : en:00:00:00.000
00:03:10.816 : en:00:03:10.816
00:05:14.314 : en:00:05:14.314
00:08:49.362 : en:00:08:49.362
00:13:02.240 : en:00:13:02.240
00:17:36.305 : en:00:17:36.305
00:19:19.408 : en:00:19:19.408
00:22:30.349 : en:00:22:30.349
00:26:48.690 : en:00:26:48.690
00:29:00.155 : en:00:29:00.155
00:30:59.691 : en:00:30:59.691
00:33:46.566 : en:00:33:46.566
00:36:34.192 : en:00:36:34.192
00:39:20.233 : en:00:39:20.233
00:41:32.657 : en:00:41:32.657
00:45:05.119 : en:00:45:05.119
00:47:23.090 : en:00:47:23.090
00:49:58.162 : en:00:49:58.162
00:52:05.456 : en:00:52:05.456
00:55:38.919 : en:00:55:38.919
00:58:10.904 : en:00:58:10.904
01:02:11.394 : en:01:02:11.394
01:04:38.083 : en:01:04:38.083
01:07:03.937 : en:01:07:03.937
01:09:18.196 : en:01:09:18.196
01:10:21.342 : en:01:10:21.342
01:15:17.763 : en:01:15:17.763
01:17:00.157 : en:01:17:00.157
01:21:41.855 : en:01:21:41.855
01:25:24.619 : en:01:25:24.619
01:29:42.711 : en:01:29:42.711
01:32:27.959 : en:01:32:27.959

Avdump:

File: D:\Фильмы 3D\Rio.2.2014.D.BDRip.1080p.3D.Half-OUT.mkv
Duration: 01:41:11 (6071.33) - WARNING: Differs from video duration! (1.27 sec)
Track #1: video
lang: Unknown (1)
codc: V_MPEG4/ISO/AVC -> H264/AVC (22)
reso: 1920x1080 -> 16:9
fram: 23.976025 fps
rate: 5497 kbps (5497.382813)
dura: 01:41:10 (6070.063965)
size: 3.88 GB (4171183047)
Track #2: audio (DTS / 5.1 / 768 kbps / Licence (Blu-ray CEE))
lang: rus -> Russian (15)
codc: A_DTS -> DTS (13)
chan: 6 -> 5.1 Surround
samp: 48000 Hz
rate: 768 kbps (768.09)
dura: 01:41:11 (6071.31)
size: 555.91 MB (582913183)
Track #3: audio (AC3 / 5.1 / 640 kbps / Licence (Blu-ray CEE))
lang: rus -> Russian (15)
codc: A_AC3 -> AC3 (2)
chan: 6 -> 5.1 Surround
samp: 48000 Hz
rate: 640 kbps (640.04)
dura: 01:41:11 (6071.23)
size: 463.22 MB (485726467)
Track #4: audio (AC3 / 5.1 / 448 kbps / Licence (Blu-ray CEE))
lang: ukr -> Unknown (1)
codc: A_AC3 -> AC3 (2)
chan: 6 -> 5.1 Surround
samp: 48000 Hz
rate: 448 kbps (448.04)
dura: 01:41:11 (6071.23)
size: 324.26 MB (340016119)
Track #5: audio (DTS / 5.1 / 1510 kbps / Original)
lang: Unknown (1)
codc: A_DTS -> DTS (13)
chan: 6 -> 5.1 Surround
samp: 48000 Hz
rate: 1509 kbps (1509.10)
dura: 01:41:10 (6070.10)
size: 1.07 GB (1145047718)
Track #6: subtitles (Forced)
lang: rus -> Russian (15)
type: S_TEXT/UTF8 -> SRT (3)
size: 154.00 B (154)
Track #7: subtitles (Full)
lang: rus -> Russian (15)
type: S_TEXT/UTF8 -> SRT (3)
size: 69.11 KB (70765)
Track #8: subtitles (Full)
lang: ukr -> Unknown (1)
type: S_TEXT/UTF8 -> SRT (3)
size: 70.47 KB (72159)
Track #9: subtitles (Full)
lang: Unknown (1)
type: S_TEXT/UTF8 -> SRT (3)
size: 43.50 KB (44539)
Track #10: subtitles (Full (Colored))
lang: Unknown (1)
type: S_TEXT/UTF8 -> SRT (3)
size: 116.96 KB (119770)
Sizes: (check sanity)
disk: 6.27 GB (6728462062)
atts: 365.26 KB (374024)
trac: 6.26 GB (6725193921) [based on track size]
bitr: 6.26 GB (6724600918) [based on bitrate]
tdif: 2.76 MB (2894117) 0.04%
bdif: 3.33 MB (3487119) 0.05%
Скриншоты:

Яндекс.Метрика
Рейтинг@Mail.ru