Пчелиные истории / The Hive (Ray Merritt)[2010.,Мультфильм, Семейный, Детский, Приключения] WEBRip [H.264/1080-LQ] (Сезон 01, Серии 01-26 из 26)

 

Создавать темы 06-Июл-2014 04:50

Пчелиные истории / The Hive- Год выпуска: 2010
Производство: Великобритания / Disney Junior, DQ Entertainment, Lupus Films, Monumental Productions
Жанр: Мультфильм, Семейный, Детский, Приключения
Описание:
Этот жужжащий, жужжащий мир! Пчелиный улей - дом для счастливого и дружного пчелиного семейства. Папа-пчела, Мама-пчела и их дети Базз и Руби - они похожи на самую обычную семью, за исключением того, что они маленькие, полосатые и постоянно жужжат! В школе Медовой росы готовятся отмечать юбилей, проводят день спорта и урок по оказанию первой помощи. Базз пробует себя в качестве почтальона, фокусника и садовода, отправляется с Папой-пчелой в поход и помогает Маме-пчеле делать покупки через Интернет. Руби помогает брату справиться с маленькими неприятностями. И вместе они ждут пополнения в пчелином семействе…
Режиссер: Ray Merritt
Персонажи: Део Симкокс, Хейдон Доунинг, Тереза Галлахер, Ясмин Гаррад, Саймон Гринхолл, Пенни Халл, Элла Кеньон, Дункан Уисби, Роберт Уолстенхолм

Продолжительность: Серия по ~00:07:00
Качество видео: WEBRip 1080p
Перевод: Дублированный
Видеокодек: MPEG-4 AVC/H.264
Битрейт видео: ~3855 Кбит/сек
Размер кадра: 1920x1080
Аудиокодек: AC3 2.0
Битрейт аудио: 192 Кбит/сек

Список серий:

01. Базз - почтальон
02. Королевский визит
03. Детская комната
04. Базз - волшебник
05. Испуганная пчела
06. Базз спешит на помощь
07. Компьютеризация
08. День спорта
09. День рождения
10. Плюшевый мишка Базза
11. Сад Базза
12. Ты не слышал?
13. Колыбельная для пчелки
14. Преданная пчелка
15. Ветреный день
16. Вымышленная пчелка
17. Староста класса
18. Лучший друг пчелы
19. Разумная пчелка
20. Базз наводит чистоту
21. Сонная пчелка
22. Попрыгунчик идет в школу
23. Пчелка на самокате
24. Сломанный усик
25. Танцующая пчелка
26. Базз - помощник

MediaInfo:

Общее
Уникальный идентификатор : 216287149783337162964261554530851783136 (0xA2B763CC4089480AA406EC56C3A081E0)
Формат : Matroska
Версия формата : Version 2
Размер файла : 212 Мбайт
Продолжительность : 7 м. 20 с.
Общий поток : 4046 Кбит/сек
Дата кодирования : UTC 2014-04-24 08:23:54
Программа кодирования : mkvmerge v5.8.0 ('No Sleep / Pillow') built on Sep 2 2012 15:37:04
Библиотека кодирования : libebml v1.2.3 + libmatroska v1.3.0
Видео
Идентификатор : 1
Формат : AVC
Формат/Информация : Advanced Video Codec
Профиль формата : [url=mailto:[email protected]][email protected][/url]
Параметр CABAC формата : Да
Параметр ReFrames формата : 4 кадра
Идентификатор кодека : V_MPEG4/ISO/AVC
Продолжительность : 7 м. 20 с.
Битрейт : 3855 Кбит/сек
Ширина : 1920 пикселей
Высота : 1080 пикселей
Соотношение сторон : 16:9
Режим частоты кадров : Постоянный
Частота кадров : 25,000 кадров/сек
Цветовое пространство : YUV
Субдискретизация насыщенности : 4:2:0
Битовая глубина : 8 бит
Тип развёртки : Прогрессивная
Бит/(Пиксели*Кадры) : 0.074
Размер потока : 198 Мбайт (93%)
Библиотека кодирования : x264 core 125 r2208 d9d2288
Настройки программы : cabac=1 / ref=2 / deblock=1:-2:-2 / analyse=0x3:0x133 / me=umh / subme=9 / psy=1 / psy_rd=1.05:0.15 / mixed_ref=1 / me_range=32 / chroma_me=1 / trellis=2 / 8x8dct=1 / cqm=0 / deadzone=21,11 / fast_pskip=0 / chroma_qp_offset=-3 / threads=6 / lookahead_threads=1 / sliced_threads=0 / nr=0 / decimate=0 / interlaced=0 / bluray_compat=0 / constrained_intra=0 / bframes=2 / b_pyramid=2 / b_adapt=2 / b_bias=0 / direct=3 / weightb=1 / open_gop=0 / weightp=2 / keyint=250 / keyint_min=25 / scenecut=40 / intra_refresh=0 / rc=2pass / mbtree=0 / bitrate=3855 / ratetol=1.0 / qcomp=0.75 / qpmin=0 / qpmax=69 / qpstep=4 / cplxblur=20.0 / qblur=0.5 / ip_ratio=1.40 / pb_ratio=1.30 / aq=2:0.80
Язык : English
Default : Да
Forced : Нет
Основные цвета : BT.709
Характеристики трансфера : BT.709
Коэффициенты матрицы : BT.709
Аудио
Идентификатор : 2
Формат : AC-3
Формат/Информация : Audio Coding 3
Расширение режима : CM (complete main)
Параметр Endianness формата : Big
Идентификатор кодека : A_AC3
Продолжительность : 7 м. 20 с.
Вид битрейта : Постоянный
Битрейт : 192 Кбит/сек
Каналы : 2 канала
Расположение каналов : Front: L R
Частота : 48,0 КГц
Битовая глубина : 16 бит
Метод сжатия : С потерями
Размер потока : 10,1 Мбайт (5%)
Заголовок : Dub
Язык : Russian
Default : Да
Forced : Нет
Скриншоты:

Яндекс.Метрика
Рейтинг@Mail.ru