[ Сегодня на трекере фрилич! Идет свободное скачивание без начисления Download ]

Барашек Шон / Shaun The Sheep (Ричард Голешовски, Кристофер Сэдлер, Симус Мэлоун)[2013., Мультфильм, Комедия, Семейный] WEBRip [720p] (Сезон 4, Серии 01-20 из 20)

 

Создавать темы 06-Июл-2014 04:49

Барашек Шон / Shaun The Sheep- Год выпуска: 2013
Производство: Великобритания / Aardman Animations
Жанр: Мультфильм, Комедия, Семейный
Описание:
Сообразительный барашек Шон по праву считается вожаком стада. Он постоянно втягивает своих собратьев в различные комические ситуации, переворачивая все вверх дном на родной ферме. Шон и его приятели постоянно вьются вокруг овчарки по кличке Битцер, которая частенько останавливает Фермера, пытающегося разобраться что творится за его спиной.
Режиссер: Ричард Голешовски, Кристофер Сэдлер, Симус Мэлоун
Персонажи: Шон и друзья
Продолжительность: Серия по ~ 00:07:00
Качество видео: WEBRip 720p
Перевод: Не требуется

Видеокодек: MPEG-4 AVC/H.264
Битрейт видео: ~2301 Кбит/сек
Размер кадра: 1280x720
Аудиокодек: AAC 2.0
Битрейт аудио: 93,5 Кбит/сек

Список серий:

101.Cones
102.Caught Short Alien
103.Happy Birthday Timmy
104.The Genie
105.3DTV
106.The Smelly Farmer
107.DIY
108.The Rabbit
109.Prize Possession
110.The Spider
111.The Looney Tic
112.Men At Work
113.The Dog Show
114.Missing Piece
115.Wildlife Watch
116.The Pelican
117.Bad Boy
118.Remote Contro
119.Phoney Farmer
120.Ground Dog Day

MediaInfo:

Общее
Формат : MPEG-4
Профиль формата : Base Media
Идентификатор кодека : isom
Размер файла : 120 Мбайт
Продолжительность : 6 м. 59 с.
Режим общего битрейта : Переменный
Общий поток : 2400 Кбит/сек
Программа кодирования : Lavf54.59.106
Видео
Идентификатор : 1
Формат : AVC
Формат/Информация : Advanced Video Codec
Профиль формата : [url=mailto:[email protected]][email protected][/url]
Параметр CABAC формата : Да
Параметр ReFrames формата : 2 кадра
Идентификатор кодека : avc1
Идентификатор кодека/Информация : Advanced Video Coding
Продолжительность : 6 м. 59 с.
Вид битрейта : Переменный
Битрейт : 2301 Кбит/сек
Максимальный битрейт : 3500 Кбит/сек
Ширина : 1280 пикселей
Высота : 720 пикселей
Соотношение сторон : 16:9
Режим частоты кадров : Постоянный
Частота кадров : 25,000 кадров/сек
Цветовое пространство : YUV
Субдискретизация насыщенности : 4:2:0
Битовая глубина : 8 бит
Тип развёртки : Прогрессивная
Бит/(Пиксели*Кадры) : 0.100
Размер потока : 115 Мбайт (96%)
Аудио
Идентификатор : 2
Формат : AAC
Формат/Информация : Advanced Audio Codec
Профиль формата : LC
Идентификатор кодека : 40
Продолжительность : 6 м. 59 с.
Вид битрейта : Постоянный
Битрейт : 93,5 Кбит/сек
Каналы : 2 канала
Расположение каналов : Front: L R
Частота : 48,0 КГц
Метод сжатия : С потерями
Размер потока : 4,68 Мбайт (4%)
Скриншоты:

Яндекс.Метрика
Рейтинг@Mail.ru