Ной / Noah (Даррен Аронофски / Darren Aronofsky) [2014 г., Приключения, драма, HDRip] Dub (звук с TS)

 

Создавать темы 05-Июл-2014 17:33

-Ной / Noah-«Конец — это только начало»- Производство: США / Disruption Entertainment, Paramount Pictures, Protozoa Pictures, Regency Enterprises
Год выпуска: 2014 г.
Жанр: Приключения, драма
Продолжительность: 02:17:53
Мировая премьера: 10 марта 2014
Российская премьера: 27 марта 2014, «Централ Партнершип»
Дата выхода DVD: 29 июля 2014, «Новый Диск»
Дата выхода Blu-Ray: 29 июля 2014, «Новый Диск»
Перевод: Профессиональный (полное дублирование) [звук с TS]-Режиссер: Даррен Аронофски / Darren Aronofsky
В ролях: Кевин Дюран, Дженнифер Коннелли, Логан Лерман, Энтони Хопкинс, Марк Марголис, Ник Нолти, Рассел Кроу, Дуглас Бут, Рэй Уинстон, Эмма Уотсон-Описание: История отца, воина и спасителя Человечества и всего живого на Земле.-Качество видео: HDRip
Контейнер: AVI
Видео кодек: XviD
Аудио кодек: MP3
Видео: 720x384 (1.88:1), 23.976 fps, XviD build 50 ~1290 kbps avg, 0.19 bit/pixel
Аудио: 48 kHz, MPEG Layer 3, 2 ch, ~128.00 kbps avg
Cубтитры: отсутствуют

Media Info

General
Complete name : D:\Noah.2013.Dt.HDRip.1400MB.avi
Format : AVI
Format/Info : Audio Video Interleave
File size : 1.38 GiB
Duration : 2h 17mn
Overall bit rate : 1 428 Kbps
Writing application : VirtualDubMod 1.5.10.2 (build 2540/release)
Writing library : VirtualDubMod build 2540/release
Video
ID : 0
Format : MPEG-4 Visual
Format profile : Advanced [email protected]
Format settings, BVOP : 2
Format settings, QPel : No
Format settings, GMC : No warppoints
Format settings, Matrix : Default (H.263)
Codec ID : XVID
Codec ID/Hint : XviD
Duration : 2h 17mn
Bit rate : 1 235 Kbps
Width : 720 pixels
Height : 384 pixels
Display aspect ratio : 1.85:1
Frame rate : 23.976 fps
Color space : YUV
Chroma subsampling : 4:2:0
Bit depth : 8 bits
Scan type : Progressive
Compression mode : Lossy
Bits/(Pixel*Frame) : 0.186
Stream size : 1.19 GiB (86%)
Writing library : XviD 1.2.1 (UTC 2008-12-04)
Audio
ID : 1
Format : MPEG Audio
Format version : Version 1
Format profile : Layer 3
Mode : Joint stereo
Mode extension : MS Stereo
Codec ID : 55
Codec ID/Hint : MP3
Duration : 2h 17mn
Bit rate mode : Constant
Bit rate : 128 Kbps
Channel(s) : 2 channels
Sampling rate : 48.0 KHz
Compression mode : Lossy
Stream size : 126 MiB (9%)
Alignment : Aligned on interleaves

Скриншоты

Яндекс.Метрика
Рейтинг@Mail.ru