[ Сегодня на трекере фрилич! Идет свободное скачивание без начисления Download ]

ГУ-ГА (Виллен Новак) [1989 г., драма, военный, DVD9]

 

Создавать темы 24-Окт-2013 21:45

ГУ-ГА«Месяц службы в штрафном батальоне приравнивался к десяти годам тюрьмы»
Год выпуска: 1989
Страна: СССР
Жанр: драма, военный
Продолжительность: 133 мин.
Перевод: Не требуется
Режиссер: Виллен Новак
В ролях: Алексей Горбунов, Алексей Волков, Андрей Толубеев, Александр Соловьев, Вера Сотникова, Юрий Орлов, Александр Завьялов, Константин Шафоренко, Сергей Скрипкин, Саидмурад Зияутдинов, Наталья Андросик, А. Мухамедова, Рудольф Мухин, Николай Волков, Владимир Носик, Михаил Крылов, Рустам Уразаев, Павел Степанов, Николай Холошин, Александр Калугин, Зоя Буряк.
Описание: По повести Мориса Симашко
Фильм приоткрывает завесу над еще одним порождением сталинского режима - батальонами штрафников времен Великой Отечественной войны, месяц службы в которых приравнивался к десяти годам тюрьмы. «Гу-га» - фильм о тех, кто, проливая свою кровь, ежедневно рискуя собственной жизнью, расплачивался за ошибки штабных.
Доп. информация:


MediaInfo

General
Complete name                    : E:\Фильмы\Военные\GU-GA\VIDEO_TS\VTS_03_1.VOB
Format                           : MPEG-PS
File size                        : 1 024 MiB
Duration                         : 18mn 24s
Overall bit rate                 : 7 777 Kbps
Video
ID                               : 224 (0xE0)
Format                           : MPEG Video
Format version                   : Version 2
Format profile                   : [email protected]
Format settings, Matrix          : Default
Duration                         : 18mn 24s
Bit rate mode                    : Variable
Bit rate                         : 7 084 Kbps
Nominal bit rate                 : 8 500 Kbps
Width                            : 720 pixels
Height                           : 576 pixels
Display aspect ratio             : 4/3
Frame rate                       : 25.000 fps
Standard                         : PAL
Colorimetry                      : 4:2:0
Scan type                        : Interlaced
Scan order                       : Top Field First
Bits/(Pixel*Frame)               : 0.683
Stream size                      : 933 MiB (91%)
Audio
ID                               : 128 (0x80)
Format                           : AC-3
Format/Info                      : Audio Coding 3
Duration                         : 18mn 24s
Bit rate mode                    : Constant
Bit rate                         : 384 Kbps
Channel(s)                       : 6 channels
Channel positions                : Front: L C R, Surround: L R, LFE
Sampling rate                    : 48.0 KHz
Video delay                      : -80ms
Stream size                      : 50.5 MiB (5%)
Menu
Format                           : DVD-Video
[b]Продолжительность: [/b]00:18:07
[b]Формат: [/b]vob
[b]Видео: [/b] MPEG-2 Video, 720x576, 7202 kbps
[b]Аудио: [/b]русский, оригинал, AC3 5.1, 384 kbps
General
Complete name                    : E:\Фильмы\Военные\GU-GA\VIDEO_TS\VTS_03_2.VOB
Format                           : MPEG-PS
File size                        : 1 024 MiB
Duration                         : 18mn 7s
Overall bit rate                 : 7 901 Kbps
Video
ID                               : 224 (0xE0)
Format                           : MPEG Video
Format version                   : Version 2
Format profile                   : [email protected]
Format settings, Matrix          : Default
Duration                         : 18mn 7s
Bit rate mode                    : Variable
Bit rate                         : 7 203 Kbps
Nominal bit rate                 : 8 500 Kbps
Width                            : 720 pixels
Height                           : 576 pixels
Display aspect ratio             : 4/3
Frame rate                       : 25.000 fps
Standard                         : PAL
Colorimetry                      : 4:2:0
Scan type                        : Interlaced
Scan order                       : Top Field First
Bits/(Pixel*Frame)               : 0.695
Stream size                      : 933 MiB (91%)
Audio
ID                               : 128 (0x80)
Format                           : AC-3
Format/Info                      : Audio Coding 3
Duration                         : 18mn 7s
Bit rate mode                    : Constant
Bit rate                         : 384 Kbps
Channel(s)                       : 6 channels
Channel positions                : Front: L C R, Surround: L R, LFE
Sampling rate                    : 48.0 KHz
Video delay                      : -400ms
Stream size                      : 49.8 MiB (5%)
Menu
Format                           : DVD-Video
[b]Продолжительность: [/b]00:17:47
[b]Формат: [/b]vob
[b]Видео: [/b] MPEG-2 Video, 720x576, 7341 kbps
[b]Аудио: [/b]русский, оригинал, AC3 5.1, 384 kbps
]General
Complete name                    : E:\Фильмы\Военные\GU-GA\VIDEO_TS\VTS_03_3.VOB
Format                           : MPEG-PS
File size                        : 1 024 MiB
Duration                         : 17mn 47s
Overall bit rate                 : 8 045 Kbps
Video
ID                               : 224 (0xE0)
Format                           : MPEG Video
Format version                   : Version 2
Format profile                   : [email protected]
Format settings, Matrix          : Default
Duration                         : 17mn 47s
Bit rate mode                    : Variable
Bit rate                         : 7 341 Kbps
Nominal bit rate                 : 8 500 Kbps
Width                            : 720 pixels
Height                           : 576 pixels
Display aspect ratio             : 4/3
Frame rate                       : 25.000 fps
Standard                         : PAL
Colorimetry                      : 4:2:0
Scan type                        : Interlaced
Scan order                       : Top Field First
Bits/(Pixel*Frame)               : 0.708
Stream size                      : 934 MiB (91%)
Audio
ID                               : 128 (0x80)
Format                           : AC-3
Format/Info                      : Audio Coding 3
Duration                         : 17mn 47s
Bit rate mode                    : Constant
Bit rate                         : 384 Kbps
Channel(s)                       : 6 channels
Channel positions                : Front: L C R, Surround: L R, LFE
Sampling rate                    : 48.0 KHz
Video delay                      : -584ms
Stream size                      : 48.9 MiB (5%)
Menu
Format                           : DVD-Video
Качество: DVD9
Формат: DVD Video
Видео кодек: MPEG2
Аудио кодек: AC3
Видео: MPEG-2 Video, 720x576, (4:3), 25.00fps, 7084 Kbps
Аудио: русский, оригинал, Dolby AC3, 48000Hz, 6ch, 384Kbps

Скриншоты

Яндекс.Метрика
Рейтинг@Mail.ru